ABBA - Дискография (Original Unremastered Recordings) (8 albums) - 1973, (Pop-Rock), APE (image + .cue), lossless

Ответить на тему
 
Автор
Сообщение

Хоттабыч ®

Стаж: 7 лет 7 месяцев

Сообщений: 27

Репутация: 20 [+] [-]

Пост 08-Авг-2013 23:51

[Цитировать] 

ABBA - Дискография (Original Unremastered Recordings) (8 albums)- Жанр: Pop-Rock
Страна: Germany, Netherlands
Год выпуска: 1973
Контейнер: APE (image + .cue)
Битрейт аудио: lossless
Продолжительность: 05:16:29
Альбомы:

1973 - Ring Ring

Год выпуска: 1973
Продолжительность: 00:35:40
Треклист:

01 - Ring Ring
02 - Another Town, Another Train
03 - Disillusion
04 - People Need Love
05 - I Saw It In The Mirror
06 - Nina, Pretty Ballerina
07 - Love Isn't Easy (But It Sure Is Hard Enough)
08 - Me And Bobby And Bobby's Brother
09 - He Is Your Brother
10 - She's My Kind Of Girl
11 - I Am Just A Girl
12 - Rock'n'Roll Band

Отчет EAC

Exact Audio Copy V0.99 prebeta 5 from 4. May 2009
Отчёт EAC об извлечении, выполненном 3. июня 2009, 10:49
Unknown Artist / Unknown Title
Дисковод: Optiarc DVD RW AD-7200S Adapter: 2 ID: 0
Режим чтения : Достоверность
Использование точного потока : Да
Отключение кэша аудио : Да
Использование указателей C2 : Нет
Коррекция смещения при чтении : 48
Способность читать области Lead-in и Lead-out : Нет
Заполнение пропущенных сэмплов тишиной : Да
Удаление блоков с тишиной в начале и конце : Нет
При вычислениях CRC использовались нулевые сэмплы : Да
Интерфейс : Установленный внешний ASPI-интерфейс
Выходной формат : Monkey's Audio (без потерь)
Выбранный битрейт : Normal Lossless Compression
Качество : Высокий
Добавление ID3-тэга : Да
Утилита сжатия : C:\Program Files\Exact Audio Copy\MAC.exe
TOC извлечённого CD
Трек | Старт | Длительность | Начальный сектор | Конечный сектор
---------------------------------------------------------------------
1 | 0:00.33 | 3:04.12 | 33 | 13844
2 | 3:04.45 | 3:11.63 | 13845 | 28232
3 | 6:16.33 | 3:07.50 | 28233 | 42307
4 | 9:24.08 | 2:44.12 | 42308 | 54619
5 | 12:08.20 | 2:33.63 | 54620 | 66157
6 | 14:42.08 | 2:53.37 | 66158 | 79169
7 | 17:35.45 | 2:53.13 | 79170 | 92157
8 | 20:28.58 | 2:49.50 | 92158 | 104882
9 | 23:18.33 | 3:18.62 | 104883 | 119794
10 | 26:37.20 | 2:41.13 | 119795 | 131882
11 | 29:18.33 | 3:04.37 | 131883 | 145719
12 | 32:22.70 | 3:07.25 | 145720 | 159769
Характеристики диапазона извлечения и сообщения об ошибках
Выбранный диапазон
Имя файла D:\Music\RIPs\ABBA\ABBA - 1973 - Ring Ring\ABBA - 1973 - Ring Ring.wav
Пиковый уровень 98.8 %
Качество диапазона 100.0 %
CRC теста EFCCED54
CRC копии EFCCED54
Копирование... OK
Ошибок не произошло
Конец отчёта

1974 - Waterloo

Год выпуска: 1993
Продолжительность: 00:35:38
Треклист:

01 - Waterloo
02 - Sitting In The Palmtree
03 - King Kong Song
04 - Hasta Manana
05 - My Mama Said
06 - Dance (While The Music Still Goes On)
07 - Honey, Honey
08 - Watch Out
09 - What About Livingstone
10 - Gonna Sing You My Lovesong
11 - Suzy-Hang-Around

Отчет EAC

Exact Audio Copy V0.99 prebeta 5 from 4. May 2009
Отчёт EAC об извлечении, выполненном 3. июня 2009, 11:23
Unknown Artist / Unknown Title
Дисковод: Optiarc DVD RW AD-7200S Adapter: 2 ID: 0
Режим чтения : Достоверность
Использование точного потока : Да
Отключение кэша аудио : Да
Использование указателей C2 : Нет
Коррекция смещения при чтении : 48
Способность читать области Lead-in и Lead-out : Нет
Заполнение пропущенных сэмплов тишиной : Да
Удаление блоков с тишиной в начале и конце : Нет
При вычислениях CRC использовались нулевые сэмплы : Да
Интерфейс : Установленный внешний ASPI-интерфейс
Выходной формат : Monkey's Audio (без потерь)
Выбранный битрейт : Normal Lossless Compression
Качество : Высокий
Добавление ID3-тэга : Да
Утилита сжатия : C:\Program Files\Exact Audio Copy\MAC.exe
TOC извлечённого CD
Трек | Старт | Длительность | Начальный сектор | Конечный сектор
---------------------------------------------------------------------
1 | 0:00.33 | 2:44.25 | 33 | 12357
2 | 2:44.58 | 3:36.62 | 12358 | 28619
3 | 6:21.45 | 3:11.25 | 28620 | 42969
4 | 9:32.70 | 3:09.13 | 42970 | 57157
5 | 12:42.08 | 3:13.12 | 57158 | 71644
6 | 15:55.20 | 3:12.50 | 71645 | 86094
7 | 19:07.70 | 2:55.38 | 86095 | 99257
8 | 22:03.33 | 2:55.37 | 99258 | 112419
9 | 24:58.70 | 3:48.13 | 112420 | 129532
10 | 28:47.08 | 3:41.00 | 129533 | 146107
11 | 32:28.08 | 3:10.25 | 146108 | 160382
Характеристики диапазона извлечения и сообщения об ошибках
Выбранный диапазон
Имя файла D:\Music\RIPs\ABBA\ABBA - 1974 - Waterloo\ABBA - 1974 - Waterloo.wav
Пиковый уровень 97.7 %
Качество диапазона 100.0 %
CRC теста 4199FFCA
CRC копии 4199FFCA
Копирование... OK
Ошибок не произошло
Конец отчёта

1975 - ABBA

Год выпуска: 1987
Продолжительность: 00:51:35
Треклист:

01 - Mamma Mia
02 - Hey, Hey Helen
03 - Tropical Loveland
04 - SOS
05 - Man In The Middle
06 - Bang-A-Boomerang
07 - I Do, I Do, I Do, I Do, I Do
08 - Rock Me
09 - Intermezzo No.1
10 - I've Been Waiting For You
11 - So Long
12 - Waterloo
13 - Hasta Manana
14 - Honey, Honey
15 - Ring Ring
16 - Nina, Pretty Ballerina

Отчет EAC

Exact Audio Copy V0.99 prebeta 5 from 4. May 2009
Отчёт EAC об извлечении, выполненном 3. июня 2009, 12:36
Unknown Artist / Unknown Title
Дисковод: Optiarc DVD RW AD-7200S Adapter: 2 ID: 0
Режим чтения : Достоверность
Использование точного потока : Да
Отключение кэша аудио : Да
Использование указателей C2 : Нет
Коррекция смещения при чтении : 48
Способность читать области Lead-in и Lead-out : Нет
Заполнение пропущенных сэмплов тишиной : Да
Удаление блоков с тишиной в начале и конце : Нет
При вычислениях CRC использовались нулевые сэмплы : Да
Интерфейс : Установленный внешний ASPI-интерфейс
Выходной формат : Monkey's Audio (без потерь)
Выбранный битрейт : Normal Lossless Compression
Качество : Высокий
Добавление ID3-тэга : Да
Утилита сжатия : C:\Program Files\Exact Audio Copy\MAC.exe
TOC извлечённого CD
Трек | Старт | Длительность | Начальный сектор | Конечный сектор
---------------------------------------------------------------------
1 | 0:00.33 | 3:35.17 | 33 | 16174
2 | 3:35.50 | 3:19.33 | 16175 | 31132
3 | 6:55.08 | 3:06.62 | 31133 | 45144
4 | 10:01.70 | 3:24.53 | 45145 | 60497
5 | 13:26.48 | 3:04.07 | 60498 | 74304
6 | 16:30.55 | 3:05.28 | 74305 | 88207
7 | 19:36.08 | 3:17.25 | 88208 | 103007
8 | 22:53.33 | 3:07.62 | 103008 | 117094
9 | 26:01.20 | 3:48.13 | 117095 | 134207
10 | 29:49.33 | 3:43.20 | 134208 | 150952
11 | 33:32.53 | 3:08.27 | 150953 | 165079
12 | 36:41.05 | 2:45.55 | 165080 | 177509
13 | 39:26.60 | 3:10.73 | 177510 | 191832
14 | 42:37.58 | 2:58.40 | 191833 | 205222
15 | 45:36.23 | 3:06.65 | 205223 | 219237
16 | 48:43.13 | 2:52.07 | 219238 | 232144
Характеристики диапазона извлечения и сообщения об ошибках
Выбранный диапазон
Имя файла D:\Music\RIPs\ABBA\ABBA - 1975 - ABBA\ABBA - 1975 - ABBA.wav
Пиковый уровень 87.7 %
Качество диапазона 100.0 %
CRC теста 8CCEB7EF
CRC копии 8CCEB7EF
Копирование... OK
Ошибок не произошло
Конец отчёта

1976 - Arrival

Год выпуска: 1984
Продолжительность: 00:33:32
Треклист:

01 - When I Kissed The Teacher
02 - Dancing Queen
03 - My Love, My Life
04 - Dum Dum Diddle
05 - Knowing Me, Knowing You
06 - Money, Money, Money
07 - That's Me
08 - Why Did It Have To Be Me
09 - Tiger
10 - Arrival

Отчет EAC

Exact Audio Copy V0.99 prebeta 5 from 4. May 2009
Отчёт EAC об извлечении, выполненном 3. июня 2009, 13:25
Unknown Artist / Unknown Title
Дисковод: Optiarc DVD RW AD-7200S Adapter: 2 ID: 0
Режим чтения : Достоверность
Использование точного потока : Да
Отключение кэша аудио : Да
Использование указателей C2 : Нет
Коррекция смещения при чтении : 48
Способность читать области Lead-in и Lead-out : Нет
Заполнение пропущенных сэмплов тишиной : Да
Удаление блоков с тишиной в начале и конце : Нет
При вычислениях CRC использовались нулевые сэмплы : Да
Интерфейс : Установленный внешний ASPI-интерфейс
Выходной формат : Monkey's Audio (без потерь)
Выбранный битрейт : Normal Lossless Compression
Качество : Высокий
Добавление ID3-тэга : Да
Утилита сжатия : C:\Program Files\Exact Audio Copy\MAC.exe
TOC извлечённого CD
Трек | Старт | Длительность | Начальный сектор | Конечный сектор
---------------------------------------------------------------------
1 | 0:00.33 | 3:03.02 | 33 | 13759
2 | 3:03.35 | 3:52.73 | 13760 | 31232
3 | 6:56.33 | 3:53.32 | 31233 | 48739
4 | 10:49.65 | 2:54.65 | 48740 | 61854
5 | 13:44.55 | 4:02.48 | 61855 | 80052
6 | 17:47.28 | 3:07.00 | 80053 | 94077
7 | 20:54.28 | 3:17.42 | 94078 | 108894
8 | 24:11.70 | 3:22.68 | 108895 | 124112
9 | 27:34.63 | 2:56.17 | 124113 | 137329
10 | 30:31.05 | 3:01.48 | 137330 | 150952
Характеристики диапазона извлечения и сообщения об ошибках
Выбранный диапазон
Имя файла D:\Music\RIPs\ABBA\ABBA - 1976 - Arrival\ABBA - 1976 - Arrival.wav
Пиковый уровень 92.3 %
Качество диапазона 100.0 %
CRC теста 2F9F8056
CRC копии 2F9F8056
Копирование... OK
Ошибок не произошло
Конец отчёта

1977 - The Album

Год выпуска: 1984
Продолжительность: 00:40:13
Треклист:

01 - Eagle
02 - Take A Chance On Me
03 - One Man, One Woman
04 - The Name Of The Game
05 - Move On
06 - Hole In Your Soul
07 - Thank You For The Music
08 - I Wonder (Departure)
09 - I'm A Marionette

Отчет EAC

Exact Audio Copy V0.99 prebeta 5 from 4. May 2009
Отчёт EAC об извлечении, выполненном 3. июня 2009, 13:51
Unknown Artist / Unknown Title
Дисковод: Optiarc DVD RW AD-7200S Adapter: 2 ID: 0
Режим чтения : Достоверность
Использование точного потока : Да
Отключение кэша аудио : Да
Использование указателей C2 : Нет
Коррекция смещения при чтении : 48
Способность читать области Lead-in и Lead-out : Нет
Заполнение пропущенных сэмплов тишиной : Да
Удаление блоков с тишиной в начале и конце : Нет
При вычислениях CRC использовались нулевые сэмплы : Да
Интерфейс : Установленный внешний ASPI-интерфейс
Выходной формат : Monkey's Audio (без потерь)
Выбранный битрейт : Normal Lossless Compression
Качество : Высокий
Добавление ID3-тэга : Да
Утилита сжатия : C:\Program Files\Exact Audio Copy\MAC.exe
TOC извлечённого CD
Трек | Старт | Длительность | Начальный сектор | Конечный сектор
---------------------------------------------------------------------
1 | 0:00.33 | 5:47.62 | 33 | 26119
2 | 5:48.20 | 4:04.53 | 26120 | 44472
3 | 9:52.73 | 4:32.72 | 44473 | 64944
4 | 14:25.70 | 4:52.25 | 64945 | 86869
5 | 19:18.20 | 4:43.28 | 86870 | 108122
6 | 24:01.48 | 3:45.47 | 108123 | 125044
7 | 27:47.20 | 3:50.05 | 125045 | 142299
8 | 31:37.25 | 4:32.60 | 142300 | 162759
9 | 36:10.10 | 4:03.28 | 162760 | 181012
Характеристики диапазона извлечения и сообщения об ошибках
Выбранный диапазон
Имя файла D:\Music\RIPs\ABBA\ABBA - 1977 - The Album\ABBA - 1977 - The Album.wav
Пиковый уровень 91.3 %
Качество диапазона 100.0 %
CRC теста 0E60C59B
CRC копии 0E60C59B
Копирование... OK
Ошибок не произошло
Конец отчёта

1979 - Voulez-Vous

Год выпуска: 1979
Продолжительность: 00:41:55
Треклист:

01 - As Good As New
02 - Voulez-Vous
03 - I Have A Dream
04 - Angeleyes
05 - The King Has Lost His Crown
06 - Does Your Mother Know
07 - If It Wasn't For The Nights
08 - Chiquitita
09 - Lovers (Live A Little Longer)
10 - Kisses Of Fire

Отчет EAC

Exact Audio Copy V0.99 prebeta 5 from 4. May 2009
Отчёт EAC об извлечении, выполненном 3. июня 2009, 14:22
Unknown Artist / Unknown Title
Дисковод: Optiarc DVD RW AD-7200S Adapter: 2 ID: 0
Режим чтения : Достоверность
Использование точного потока : Да
Отключение кэша аудио : Да
Использование указателей C2 : Нет
Коррекция смещения при чтении : 48
Способность читать области Lead-in и Lead-out : Нет
Заполнение пропущенных сэмплов тишиной : Да
Удаление блоков с тишиной в начале и конце : Нет
При вычислениях CRC использовались нулевые сэмплы : Да
Интерфейс : Установленный внешний ASPI-интерфейс
Выходной формат : Monkey's Audio (без потерь)
Выбранный битрейт : Normal Lossless Compression
Качество : Высокий
Добавление ID3-тэга : Да
Утилита сжатия : C:\Program Files\Exact Audio Copy\MAC.exe
TOC извлечённого CD
Трек | Старт | Длительность | Начальный сектор | Конечный сектор
---------------------------------------------------------------------
1 | 0:00.33 | 3:25.62 | 33 | 15469
2 | 3:26.20 | 5:08.35 | 15470 | 38604
3 | 8:34.55 | 4:43.73 | 38605 | 59902
4 | 13:18.53 | 4:22.02 | 59903 | 79554
5 | 17:40.55 | 3:34.20 | 79555 | 95624
6 | 21:15.00 | 3:15.60 | 95625 | 110309
7 | 24:30.60 | 5:11.05 | 110310 | 133639
8 | 29:41.65 | 5:26.20 | 133640 | 158109
9 | 35:08.10 | 3:30.53 | 158110 | 173912
10 | 38:38.63 | 3:17.02 | 173913 | 188689
Характеристики диапазона извлечения и сообщения об ошибках
Выбранный диапазон
Имя файла D:\Music\RIPs\ABBA\ABBA - 1979 - Voulez-Vous\ABBA - 1979 - Voulez-Vous.wav
Пиковый уровень 84.3 %
Качество диапазона 100.0 %
CRC теста 0DFB6211
CRC копии 0DFB6211
Копирование... OK
Ошибок не произошло
Конец отчёта

1980 - Super Trouper

Год выпуска: 1985
Продолжительность: 00:42:05
Треклист:

01 - Super Trouper
02 - The Winner Takes It All
03 - On And On And On
04 - Andante, Andante
05 - Me And I
06 - Happy New Year
07 - Our Last Summer
08 - The Piper
09 - Lay All Your Love On Me
10 - The Way Old Friends Do

Отчет EAC

Exact Audio Copy V0.99 prebeta 5 from 4. May 2009
Отчёт EAC об извлечении, выполненном 3. июня 2009, 14:47
Unknown Artist / Unknown Title
Дисковод: Optiarc DVD RW AD-7200S Adapter: 2 ID: 0
Режим чтения : Достоверность
Использование точного потока : Да
Отключение кэша аудио : Да
Использование указателей C2 : Нет
Коррекция смещения при чтении : 48
Способность читать области Lead-in и Lead-out : Нет
Заполнение пропущенных сэмплов тишиной : Да
Удаление блоков с тишиной в начале и конце : Нет
При вычислениях CRC использовались нулевые сэмплы : Да
Интерфейс : Установленный внешний ASPI-интерфейс
Выходной формат : Monkey's Audio (без потерь)
Выбранный битрейт : Normal Lossless Compression
Качество : Высокий
Добавление ID3-тэга : Да
Утилита сжатия : C:\Program Files\Exact Audio Copy\MAC.exe
TOC извлечённого CD
Трек | Старт | Длительность | Начальный сектор | Конечный сектор
---------------------------------------------------------------------
1 | 0:00.32 | 4:11.68 | 32 | 18924
2 | 4:12.25 | 4:55.20 | 18925 | 41069
3 | 9:07.45 | 3:40.47 | 41070 | 57616
4 | 12:48.17 | 4:39.43 | 57617 | 78584
5 | 17:27.60 | 4:55.02 | 78585 | 100711
6 | 22:22.62 | 4:23.25 | 100712 | 120461
7 | 26:46.12 | 4:19.48 | 120462 | 139934
8 | 31:05.60 | 3:26.45 | 139935 | 155429
9 | 34:32.30 | 4:35.27 | 155430 | 176081
10 | 39:07.57 | 2:57.65 | 176082 | 189421
Характеристики диапазона извлечения и сообщения об ошибках
Выбранный диапазон
Имя файла D:\Music\RIPs\ABBA\ABBA - 1980 - Super Trouper\ABBA - 1980 - Super Trouper.wav
Пиковый уровень 98.8 %
Качество диапазона 100.0 %
CRC теста 21317A24
CRC копии 21317A24
Копирование... OK
Ошибок не произошло
Конец отчёта

1981 - The Visitors Germany

Год выпуска: 1981
Продолжительность: 00:38:01
Треклист:

01 - The Visitors
02 - Head Over Heels
03 - When All Is Said And Done
04 - Soldiers
05 - I Let The Music Speak
06 - One Of Us
07 - Two For The Price Of One
08 - Slipping Through My Fingers
09 - Like An Angel Passing Through My Room

Отчет EAC

Exact Audio Copy V0.99 prebeta 5 from 4. May 2009
Отчёт EAC об извлечении, выполненном 3. июня 2009, 15:14
Unknown Artist / Unknown Title
Дисковод: Optiarc DVD RW AD-7200S Adapter: 2 ID: 0
Режим чтения : Достоверность
Использование точного потока : Да
Отключение кэша аудио : Да
Использование указателей C2 : Нет
Коррекция смещения при чтении : 48
Способность читать области Lead-in и Lead-out : Нет
Заполнение пропущенных сэмплов тишиной : Да
Удаление блоков с тишиной в начале и конце : Нет
При вычислениях CRC использовались нулевые сэмплы : Да
Интерфейс : Установленный внешний ASPI-интерфейс
Выходной формат : Monkey's Audio (без потерь)
Выбранный битрейт : Normal Lossless Compression
Качество : Высокий
Добавление ID3-тэга : Да
Утилита сжатия : C:\Program Files\Exact Audio Copy\MAC.exe
TOC извлечённого CD
Трек | Старт | Длительность | Начальный сектор | Конечный сектор
---------------------------------------------------------------------
1 | 0:00.32 | 5:45.65 | 32 | 25971
2 | 5:46.22 | 3:47.60 | 25972 | 43056
3 | 9:34.07 | 3:19.53 | 43057 | 58034
4 | 12:53.60 | 4:40.45 | 58035 | 79079
5 | 17:34.30 | 5:23.45 | 79080 | 103349
6 | 22:58.00 | 3:57.22 | 103350 | 121146
7 | 26:55.22 | 3:38.33 | 121147 | 137529
8 | 30:33.55 | 3:53.60 | 137530 | 155064
9 | 34:27.40 | 3:34.00 | 155065 | 171114
Характеристики диапазона извлечения и сообщения об ошибках
Выбранный диапазон
Имя файла D:\Music\RIPs\ABBA\ABBA - 1981 - The Visitors\ABBA - 1981 - The Visitors.wav
Пиковый уровень 100.0 %
Качество диапазона 100.0 %
CRC теста 83FFE18E
CRC копии 83FFE18E
Копирование... OK
Ошибок не произошло
Конец отчёта
[Торрент-статистика]
[Профиль]  [ЛС] 
Показать сообщения:    
Ответить на тему

Текущее время: Сегодня 14:36

Часовой пояс: GMT + 4



Вы не можете начинать темы
Вы не можете отвечать на сообщения
Вы не можете редактировать свои сообщения
Вы не можете удалять свои сообщения
Вы не можете голосовать в опросах
Вы не можете прикреплять файлы к сообщениям
Вы не можете скачивать файлы