Modern Talking – The Very Best Of - 2001, (EuroDisco), FLAC (image + .cue), lossless

Ответить на тему
 
Автор
Сообщение

Хоттабыч ®

Стаж: 7 лет 6 месяцев

Сообщений: 27

Репутация: 20 [+] [-]

Пост 08-Авг-2013 09:37

[Цитировать] 

Modern Talking – The Very Best Of
Жанр: EuroDisco
Страна: Europe
Год выпуска: 2001
Контейнер: FLAC (image + .cue)
Битрейт аудио: lossless
Продолжительность: 01:10:09-Треклист:

01. You're My Heart, You're My Soul (New Version)
02. Brother Louie (New Version)
03. Cheri Cheri Lady
04. You Can Win If You Want
05. Atlantis Is Calling (S.O.S. For Love)
06. Geronimo's Cadillac
07. Give Me Peace On Earth
08. Jet Airliner
09. Lady Lai
10. In 100 Years
11. With A Little Love
12. Let's Talk About Love
13. You And Me
14. Slow Motion
15. Locomotion Tango
16. I Will Follow You (New Hit 1998)
17. Don't Play With My Heart (New Hit 1998)
18. You Are Not Alone

-

Отчёт EAC

Exact Audio Copy V0.99 prebeta 5 from 4. May 2009
EAC extraction logfile from 6. May 2012, 15:01
Modern Talking / The very best of
Used drive : HL-DT-STDVDRAM GSA-T50N Adapter: 1 ID: 0
Read mode : Secure
Utilize accurate stream : Yes
Defeat audio cache : Yes
Make use of C2 pointers : No
Read offset correction : 667
Overread into Lead-In and Lead-Out : No
Fill up missing offset samples with silence : Yes
Delete leading and trailing silent blocks : No
Null samples used in CRC calculations : Yes
Used interface : Native Win32 interface for Win NT & 2000
Used output format : Internal WAV Routines
Sample format : 44.100 Hz; 16 Bit; Stereo
TOC of the extracted CD
Track | Start | Length | Start sector | End sector
---------------------------------------------------------
1 | 0:00.00 | 3:51.27 | 0 | 17351
2 | 3:51.27 | 3:37.65 | 17352 | 33691
3 | 7:29.17 | 3:47.28 | 33692 | 50744
4 | 11:16.45 | 3:50.20 | 50745 | 68014
5 | 15:06.65 | 3:51.08 | 68015 | 85347
6 | 18:57.73 | 3:18.63 | 85348 | 100260
7 | 22:16.61 | 4:14.07 | 100261 | 119317
8 | 26:30.68 | 4:22.03 | 119318 | 138970
9 | 30:52.71 | 4:59.28 | 138971 | 161423
10 | 35:52.24 | 3:59.21 | 161424 | 179369
11 | 39:51.45 | 3:35.45 | 179370 | 195539
12 | 43:27.15 | 3:55.24 | 195540 | 213188
13 | 47:22.39 | 4:03.17 | 213189 | 231430
14 | 51:25.56 | 3:41.64 | 231431 | 248069
15 | 55:07.45 | 3:50.54 | 248070 | 265373
16 | 58:58.24 | 4:01.48 | 265374 | 283496
17 | 62:59.72 | 3:28.70 | 283497 | 299166
18 | 66:28.67 | 3:40.55 | 299167 | 315721
Range status and errors
Selected range
Filename C:\Users\Fancy\Desktop\Modern Talking - The very best of.wav
Peak level 99.4 %
Range quality 100.0 %
Test CRC A9AA4D45
Copy CRC A9AA4D45
Copy OK
No errors occurred
AccurateRip summary
Track 1 accurately ripped (confidence 17) [0F653EBE]
Track 2 accurately ripped (confidence 17) [0B0CF0BF]
Track 3 accurately ripped (confidence 17) [75CCEEE9]
Track 4 accurately ripped (confidence 17) [6121E78D]
Track 5 accurately ripped (confidence 16) [C22F4D9F]
Track 6 accurately ripped (confidence 17) [CFCFB175]
Track 7 accurately ripped (confidence 17) [DF7764BA]
Track 8 accurately ripped (confidence 17) [9E99E6D4]
Track 9 accurately ripped (confidence 17) [4DC53DEA]
Track 10 accurately ripped (confidence 17) [5FBAD7C1]
Track 11 accurately ripped (confidence 17) [71F64D5B]
Track 12 accurately ripped (confidence 17) [9F2312B5]
Track 13 accurately ripped (confidence 17) [B5595AA3]
Track 14 accurately ripped (confidence 17) [EE387FC1]
Track 15 accurately ripped (confidence 17) [6215E1D2]
Track 16 accurately ripped (confidence 17) [80BDBC77]
Track 17 accurately ripped (confidence 17) [4A27F7A9]
Track 18 accurately ripped (confidence 16) [56FD6549]
All tracks accurately ripped
End of status report

AudioChecker

AUDIOCHECKER v2.0 beta (build 457) - by Dester - opdester@freemail.hu
~~~~~~~~~~~~~~~~~~~~~~~~~~~~~~~~~~
-=== НЕ РЕДАКТИРУЙТЕ ЭТОТ ФАЙЛ! ===-
Путь: ...\Modern Talking – The Very Best Of - 2001
1 -=- Modern Talking - The very best of.flac -=- CDDA (100%)
123638004
Modern Talking - You're My Heart, You're My Soul (New Version)
[Торрент-статистика]
[Профиль]  [ЛС] 
Показать сообщения:    
Ответить на тему

Текущее время: Сегодня 04:12

Часовой пояс: GMT + 4



Вы не можете начинать темы
Вы не можете отвечать на сообщения
Вы не можете редактировать свои сообщения
Вы не можете удалять свои сообщения
Вы не можете голосовать в опросах
Вы не можете прикреплять файлы к сообщениям
Вы не можете скачивать файлы