Дискотека Авария - Недетское время - 2011, (Pop), APE (image + .cue), lossless

Ответить на тему
 
Автор
Сообщение

ED_Sln ®

Пол:

Стаж: 9 лет 4 месяца

Сообщений: 678

Репутация: 346 [+] [-]

Откуда: Сибирь

Пост 10-Июн-2012 12:05

[Цитировать] 

Дискотека Авария - Недетское время
Жанр: Pop
Страна: Россия
Год выпуска: 2011
Контейнер: APE (image + .cue)
Битрейт аудио: lossless
Продолжительность: 79:39
Трэклист:
01. Нано - Техно (03:14)
02. Модный Танец Арам Зам Зам (04:17)
03. Карнавал (feat. Вика Крутая) (03:59)
04. Золото (04:24)
05. Воля и Разум (04:47)
06. The Диско 10-х (The Disco Of 10th) (03:37)
07. Лабиринт (feat. Батишта) (03:57)
08. Ноги (03:47)
09. Лето Всегда (04:22)
10. Прогноз погоды (feat. Кристина Орбакайте) (03:25)
11. Недетское время (04:02)
12. Звезда (04:35)
13. Вечер (02:07)
14. Песня про яйца (DJ Рыжов Re-Edit 2010) (03:27)
15. Новогодняя (DJ Рыжов Remix) (03:51)
16. Нано техно (Extended Club Mix) (05:21)
17. Карнавал (Extended Club Mix) (06:27)

Лог создания рипа

Exact Audio Copy V0.99 prebeta 5 from 4. May 2009
Отчёт EAC об извлечении, выполненном 19. ноября 2011, 18:52
Дискотека Авария / Недетское время
Дисковод: Optiarc DVD RW AD-7260S Adapter: 2 ID: 1
Режим чтения : Достоверность
Использование точного потока : Да
Отключение кэша аудио : Да
Использование указателей C2 : Нет
Коррекция смещения при чтении : 48
Способность читать области Lead-in и Lead-out : Нет
Заполнение пропущенных сэмплов тишиной : Да
Удаление блоков с тишиной в начале и конце : Нет
При вычислениях CRC использовались нулевые сэмплы : Да
Интерфейс : Встроенный Win32-интерфейс для Win NT/2000
Выходной формат : Внутренние WAV-операции
Формат сэмплов : 44.100 Гц; 16 бит; стерео
TOC извлечённого CD
Трек | Старт | Длительность | Начальный сектор | Конечный сектор
---------------------------------------------------------------------
1 | 0:00.00 | 3:14.16 | 0 | 14565
2 | 3:14.16 | 4:17.20 | 14566 | 33860
3 | 7:31.36 | 3:59.16 | 33861 | 51801
4 | 11:30.52 | 4:24.00 | 51802 | 71601
5 | 15:54.52 | 4:47.40 | 71602 | 93166
6 | 20:42.17 | 3:37.70 | 93167 | 109511
7 | 24:20.12 | 3:57.26 | 109512 | 127312
8 | 28:17.38 | 3:47.36 | 127313 | 144373
9 | 32:04.74 | 4:22.69 | 144374 | 164092
10 | 36:27.68 | 3:25.37 | 164093 | 179504
11 | 39:53.30 | 4:02.01 | 179505 | 197655
12 | 43:55.31 | 4:35.36 | 197656 | 218316
13 | 48:30.67 | 2:07.02 | 218317 | 227843
14 | 50:37.69 | 3:27.37 | 227844 | 243405
15 | 54:05.31 | 3:51.73 | 243406 | 260803
16 | 57:57.29 | 5:21.34 | 260804 | 284912
17 | 63:18.63 | 6:27.65 | 284913 | 314002
Характеристики диапазона извлечения и сообщения об ошибках
Выбранный диапазон
Имя файла D:\Раздачи\музыка\Раздачи\Lossless\Дискотека Авария - Недетское Время (2011)\Дискотека Авария - Недетское время.wav
Пиковый уровень 97.7 %
Качество диапазона 100.0 %
CRC теста DABA014B
CRC копии DABA014B
Копирование... OK
Ошибок не произошло
AccurateRip: сводка
Трек 1 нет в базе данных
Трек 2 нет в базе данных
Трек 3 нет в базе данных
Трек 4 нет в базе данных
Трек 5 нет в базе данных
Трек 6 нет в базе данных
Трек 7 нет в базе данных
Трек 8 нет в базе данных
Трек 9 нет в базе данных
Трек 10 нет в базе данных
Трек 11 нет в базе данных
Трек 12 нет в базе данных
Трек 13 нет в базе данных
Трек 14 нет в базе данных
Трек 15 нет в базе данных
Трек 16 нет в базе данных
Трек 17 нет в базе данных
Ни одного трека нет в базе AccurateRip
Конец отчёта

_________________

[Торрент-статистика]
[Профиль]  [ЛС] 
Показать сообщения:    
Ответить на тему

Текущее время: Сегодня 14:36

Часовой пояс: GMT + 4



Вы не можете начинать темы
Вы не можете отвечать на сообщения
Вы не можете редактировать свои сообщения
Вы не можете удалять свои сообщения
Вы не можете голосовать в опросах
Вы не можете прикреплять файлы к сообщениям
Вы не можете скачивать файлы