Татьяна Буланова - Дискография (23 Альбома) - 2007, (Pop), FLAC (image + .cue), lossless

Ответить на тему
 
Автор
Сообщение

ED_Sln ®

Пол:

Стаж: 9 лет 4 месяца

Сообщений: 678

Репутация: 346 [+] [-]

Откуда: Сибирь

Пост 19-Апр-2012 14:16

[Цитировать] 

Татьяна Буланова - Дискография
Жанр: Pop
Страна: Россия
Год выпуска: 2007
Контейнер: FLAC (image + .cue)
Битрейт аудио: lossless
Продолжительность: 18:38:12

Трэклист

Коллекционное переиздание Легендарных альбомов 1990-1994.г

1990.25 Гвоздик (Таня Буланова и гр.«Летний сад») Коллекционное переиздание Легендарных альбомов 2002.г

01.Летний сад
02.25 гвоздик
03.Белый пароход
04.Постой
05.Я так тебя ждала
06.Девчонка
07.Здравствуй, море
08.Вспомни
09.Эй, режиссер

Лог

Exact Audio Copy V0.99 prebeta 4 from 23. January 2008
Отчёт EAC об извлечении, выполненном 31. декабря 2008, 8:38
Таня Буланова и гр.Летний сад / 25 Гвоздик
Дисковод: ASUS DRW-1814BL Adapter: 3 ID: 0
Режим чтения : Достоверность
Использование точного потока : Да
Отключение кэша аудио : Да
Использование указателей C2 : Нет
Коррекция смещения при чтении : 6
Способность читать области Lead-in и Lead-out : Нет
Заполнение пропущенных сэмплов тишиной : Да
Удаление блоков с тишиной в начале и конце : Нет
При вычислениях CRC использовались нулевые сэмплы : Да
Интерфейс : Встроенный Win32-интерфейс для Win NT/2000
Выходной формат : Внутренние WAV-операции
Формат сэмплов : 44.100 Гц; 16 бит; стерео
TOC извлечённого CD
Трек | Старт | Длительность | Начальный сектор | Конечный сектор
---------------------------------------------------------------------
1 | 0:00.00 | 4:42.62 | 0 | 21211
2 | 4:42.62 | 4:24.13 | 21212 | 41024
3 | 9:07.00 | 4:16.40 | 41025 | 60264
4 | 13:23.40 | 3:42.41 | 60265 | 76955
5 | 17:06.06 | 4:50.16 | 76956 | 98721
6 | 21:56.22 | 3:51.60 | 98722 | 116106
7 | 25:48.07 | 4:58.36 | 116107 | 138492
8 | 30:46.43 | 5:15.37 | 138493 | 162154
9 | 36:02.05 | 3:39.37 | 162155 | 178616
Характеристики диапазона извлечения и сообщения об ошибках
Выбранный диапазон
Имя файла D:\Т.Буланова\2002.Коллекционное переиздание Легендарных альбомов 90-94г.г\2002.25 Гвоздик\Таня Буланова и гр.Летний сад - 25 Гвоздик.wav
Пиковый уровень 99.9 %
Качество диапазона 99.9 %
CRC теста D714C904
CRC копии D714C904
Копирование... OK
Ошибок не произошло
AccurateRip: сводка
Трек 1 нет в базе данных
Трек 2 нет в базе данных
Трек 3 нет в базе данных
Трек 4 нет в базе данных
Трек 5 нет в базе данных
Трек 6 нет в базе данных
Трек 7 нет в базе данных
Трек 8 нет в базе данных
Трек 9 нет в базе данных
Ни одного трека нет в базе AccurateRip
Конец отчёта

1991.Не плачь (Таня Буланова и гр.«Летний сад») Коллекционное переиздание Легендарных альбомов 2002.г

01. Не уходи
02. Не плачь
03. Мальчишка
04. Симпатичный мальчик
05. Атаман
07. Инопланетянин
08. Пой со мной
09. Песня о друзьях

Лог

Exact Audio Copy V0.99 prebeta 4 from 23. January 2008
Отчёт EAC об извлечении, выполненном 31. декабря 2008, 8:57
Таня Буланова и гр.Летний сад / Не плачь
Дисковод: ASUS DRW-1814BL Adapter: 3 ID: 0
Режим чтения : Достоверность
Использование точного потока : Да
Отключение кэша аудио : Да
Использование указателей C2 : Нет
Коррекция смещения при чтении : 6
Способность читать области Lead-in и Lead-out : Нет
Заполнение пропущенных сэмплов тишиной : Да
Удаление блоков с тишиной в начале и конце : Нет
При вычислениях CRC использовались нулевые сэмплы : Да
Интерфейс : Встроенный Win32-интерфейс для Win NT/2000
Выходной формат : Внутренние WAV-операции
Формат сэмплов : 44.100 Гц; 16 бит; стерео
TOC извлечённого CD
Трек | Старт | Длительность | Начальный сектор | Конечный сектор
---------------------------------------------------------------------
1 | 0:00.00 | 4:15.49 | 0 | 19173
2 | 4:15.49 | 6:21.74 | 19174 | 47822
3 | 10:37.48 | 3:42.21 | 47823 | 64493
4 | 14:19.69 | 3:56.42 | 64494 | 82235
5 | 18:16.36 | 3:39.47 | 82236 | 98707
6 | 21:56.08 | 5:25.23 | 98708 | 123105
7 | 27:21.31 | 3:41.15 | 123106 | 139695
8 | 31:02.46 | 3:40.23 | 139696 | 156218
9 | 34:42.69 | 4:00.26 | 156219 | 174244
Характеристики диапазона извлечения и сообщения об ошибках
Выбранный диапазон
Имя файла D:\Т.Буланова\2002.Коллекционное переиздание Легендарных альбомов 90-94г.г\2002.Не плачь\Таня Буланова и гр.Летний сад - Не плачь.wav
Пиковый уровень 100.0 %
Качество диапазона 100.0 %
CRC теста 70FE952B
CRC копии 70FE952B
Копирование... OK
Ошибок не произошло
AccurateRip: сводка
Трек 1 нет в базе данных
Трек 2 нет в базе данных
Трек 3 нет в базе данных
Трек 4 нет в базе данных
Трек 5 нет в базе данных
Трек 6 нет в базе данных
Трек 7 нет в базе данных
Трек 8 нет в базе данных
Трек 9 нет в базе данных
Ни одного трека нет в базе AccurateRip
Конец отчёта

1992.Старшая сестра (Таня Буланова и гр.«Летний сад») Коллекционное переиздание Легендарных альбомов 2002.г

01. Как бы не так
02. Позволь
03. Где ты?
04. Старшая сестра
05. Закрыв глаза
06. Не обещай
07. Ты не смотришь
08. Когда?
09. Как жаль

Лог

Exact Audio Copy V0.99 prebeta 4 from 23. January 2008
Отчёт EAC об извлечении, выполненном 31. декабря 2008, 9:16
Таня Буланова и гр.Летний сад / Старшая сестра
Дисковод: ASUS DRW-1814BL Adapter: 3 ID: 0
Режим чтения : Достоверность
Использование точного потока : Да
Отключение кэша аудио : Да
Использование указателей C2 : Нет
Коррекция смещения при чтении : 6
Способность читать области Lead-in и Lead-out : Нет
Заполнение пропущенных сэмплов тишиной : Да
Удаление блоков с тишиной в начале и конце : Нет
При вычислениях CRC использовались нулевые сэмплы : Да
Интерфейс : Встроенный Win32-интерфейс для Win NT/2000
Выходной формат : Внутренние WAV-операции
Формат сэмплов : 44.100 Гц; 16 бит; стерео
TOC извлечённого CD
Трек | Старт | Длительность | Начальный сектор | Конечный сектор
---------------------------------------------------------------------
1 | 0:00.00 | 4:02.25 | 0 | 18174
2 | 4:02.25 | 4:43.42 | 18175 | 39441
3 | 8:45.67 | 4:12.09 | 39442 | 58350
4 | 12:58.01 | 3:26.53 | 58351 | 73853
5 | 16:24.54 | 4:33.09 | 73854 | 94337
6 | 20:57.63 | 3:33.15 | 94338 | 110327
7 | 24:31.03 | 3:58.47 | 110328 | 128224
8 | 28:29.50 | 3:37.07 | 128225 | 144506
9 | 32:06.57 | 5:34.27 | 144507 | 169583
Характеристики диапазона извлечения и сообщения об ошибках
Выбранный диапазон
Имя файла D:\Т.Буланова\2002.Коллекционное переиздание Легендарных альбомов 90-94г.г\2002.Старшая сестра\Таня Буланова и гр.Летний сад - Старшая сестра.wav
Пиковый уровень 97.3 %
Качество диапазона 100.0 %
CRC теста CBECE70D
CRC копии CBECE70D
Копирование... OK
Ошибок не произошло
AccurateRip: сводка
Трек 1 нет в базе данных
Трек 2 нет в базе данных
Трек 3 нет в базе данных
Трек 4 нет в базе данных
Трек 5 нет в базе данных
Трек 6 нет в базе данных
Трек 7 нет в базе данных
Трек 8 нет в базе данных
Трек 9 нет в базе данных
Ни одного трека нет в базе AccurateRip
Конец отчёта

1994.Измена (Таня Буланова и гр.«Летний сад») Коллекционное переиздание Легендарных альбомов 2002.г

01.Измена
02.Ты и я
03.Плачу...
04.Прощай
05.Последний дождь
06. Мама
07.Прости меня
08.Только ты
09.Карта
10.Колыбельная
11.Синее море

Лог

Exact Audio Copy V0.99 prebeta 4 from 23. January 2008
Отчёт EAC об извлечении, выполненном 31. декабря 2008, 9:33
Таня Буланова и гр.Летний сад / Измена
Дисковод: ASUS DRW-1814BL Adapter: 3 ID: 0
Режим чтения : Достоверность
Использование точного потока : Да
Отключение кэша аудио : Да
Использование указателей C2 : Нет
Коррекция смещения при чтении : 6
Способность читать области Lead-in и Lead-out : Нет
Заполнение пропущенных сэмплов тишиной : Да
Удаление блоков с тишиной в начале и конце : Нет
При вычислениях CRC использовались нулевые сэмплы : Да
Интерфейс : Встроенный Win32-интерфейс для Win NT/2000
Выходной формат : Внутренние WAV-операции
Формат сэмплов : 44.100 Гц; 16 бит; стерео
TOC извлечённого CD
Трек | Старт | Длительность | Начальный сектор | Конечный сектор
---------------------------------------------------------------------
1 | 0:00.30 | 3:40.27 | 30 | 16556
2 | 3:40.57 | 3:53.00 | 16557 | 34031
3 | 7:33.57 | 4:56.30 | 34032 | 56261
4 | 12:30.12 | 3:33.23 | 56262 | 72259
5 | 16:03.35 | 3:57.70 | 72260 | 90104
6 | 20:01.30 | 5:16.42 | 90105 | 113846
7 | 25:17.72 | 3:49.08 | 113847 | 131029
8 | 29:07.05 | 4:35.72 | 131030 | 151726
9 | 33:43.02 | 4:12.00 | 151727 | 170626
10 | 37:55.02 | 4:04.15 | 170627 | 188941
11 | 41:59.17 | 3:41.23 | 188942 | 205539
Характеристики диапазона извлечения и сообщения об ошибках
Выбранный диапазон
Имя файла D:\Т.Буланова\2002.Коллекционное переиздание Легендарных альбомов 90-94г.г\2002.Измена\Таня Буланова и гр.Летний сад - Измена .wav
Пиковый уровень 91.9 %
Качество диапазона 99.9 %
CRC теста 3AFB6A4C
CRC копии 3AFB6A4C
Копирование... OK
Ошибок не произошло
AccurateRip: сводка
Трек 1 нет в базе данных
Трек 2 нет в базе данных
Трек 3 нет в базе данных
Трек 4 нет в базе данных
Трек 5 нет в базе данных
Трек 6 нет в базе данных
Трек 7 нет в базе данных
Трек 8 нет в базе данных
Трек 9 нет в базе данных
Трек 10 нет в базе данных
Трек 11 нет в базе данных
Ни одного трека нет в базе AccurateRip
Конец отчёта

1993.Баллады (Таня Буланова и гр.«Летний сад»)

1.Как бы не так
2.Позволь
3.Вспомни
4.Вернись
5.Закрыв глаза
6.Ты не смотришь
7.Как жаль
8.Девчонка
9.Не плачь

Back

Лог

Exact Audio Copy V0.99 prebeta 4 from 23. January 2008
Отчёт EAC об извлечении, выполненном 28. декабря 2008, 8:16
Таня Буланова и гр.«Летний сад» / Баллады
Дисковод: ASUS DRW-1814BL Adapter: 3 ID: 0
Режим чтения : Достоверность
Использование точного потока : Да
Отключение кэша аудио : Да
Использование указателей C2 : Нет
Коррекция смещения при чтении : 6
Способность читать области Lead-in и Lead-out : Нет
Заполнение пропущенных сэмплов тишиной : Да
Удаление блоков с тишиной в начале и конце : Нет
При вычислениях CRC использовались нулевые сэмплы : Да
Интерфейс : Встроенный Win32-интерфейс для Win NT/2000
Выходной формат : Внутренние WAV-операции
Формат сэмплов : 44.100 Гц; 16 бит; стерео
TOC извлечённого CD
Трек | Старт | Длительность | Начальный сектор | Конечный сектор
---------------------------------------------------------------------
1 | 0:00.28 | 4:01.52 | 28 | 18154
2 | 4:02.05 | 4:44.63 | 18155 | 39517
3 | 8:46.68 | 5:12.60 | 39518 | 62977
4 | 13:59.53 | 5:25.02 | 62978 | 87354
5 | 19:24.55 | 4:36.55 | 87355 | 108109
6 | 24:01.35 | 4:03.20 | 108110 | 126354
7 | 28:04.55 | 5:38.15 | 126355 | 151719
8 | 33:42.70 | 3:50.18 | 151720 | 168987
9 | 37:33.13 | 6:21.60 | 168988 | 197622
Характеристики диапазона извлечения и сообщения об ошибках
Выбранный диапазон
Имя файла D:\Т.Буланова\1993.Баллады (Т.Буланова и гр.Летний сад)\Таня Буланова и гр.«Летний сад» - Баллады.wav
Пиковый уровень 100.0 %
Качество диапазона 99.9 %
CRC теста 8D9BECCB
CRC копии 8D9BECCB
Копирование... OK
Ошибок не произошло
AccurateRip: сводка
Трек 1 нет в базе данных
Трек 2 нет в базе данных
Трек 3 нет в базе данных
Трек 4 нет в базе данных
Трек 5 нет в базе данных
Трек 6 нет в базе данных
Трек 7 нет в базе данных
Трек 8 нет в базе данных
Трек 9 нет в базе данных
Ни одного трека нет в базе AccurateRip
Конец отчёта

1994.Странная встреча (Таня Буланова и гр.«Летний сад»)

01.Карта
02.Ты молчишь
03.И никогда ты не поймешь
04.Спи,мой мальчик
05.Скажи мне правду,атаман
06.Снег
07.Красивые глаза
08.Странная встреча
09.Как жаль
10.Старшая сестра
11.Вернись

Back

Лог

Exact Audio Copy V0.99 prebeta 4 from 23. January 2008
Отчёт EAC об извлечении, выполненном 30. декабря 2008, 0:35
Таня Буланова и гр.«Летний сад» / Странная встреча
Дисковод: ASUS DRW-1814BL Adapter: 3 ID: 0
Режим чтения : Достоверность
Использование точного потока : Да
Отключение кэша аудио : Да
Использование указателей C2 : Нет
Коррекция смещения при чтении : 6
Способность читать области Lead-in и Lead-out : Нет
Заполнение пропущенных сэмплов тишиной : Да
Удаление блоков с тишиной в начале и конце : Нет
При вычислениях CRC использовались нулевые сэмплы : Да
Интерфейс : Встроенный Win32-интерфейс для Win NT/2000
Выходной формат : Внутренние WAV-операции
Формат сэмплов : 44.100 Гц; 16 бит; стерео
TOC извлечённого CD
Трек | Старт | Длительность | Начальный сектор | Конечный сектор
---------------------------------------------------------------------
1 | 0:00.00 | 4:14.37 | 0 | 19086
2 | 4:14.37 | 4:42.48 | 19087 | 40284
3 | 8:57.10 | 3:47.22 | 40285 | 57331
4 | 12:44.32 | 4:03.43 | 57332 | 75599
5 | 16:48.00 | 5:05.62 | 75600 | 98536
6 | 21:53.62 | 3:24.50 | 98537 | 113886
7 | 25:18.37 | 3:24.55 | 113887 | 129241
8 | 28:43.17 | 4:51.58 | 129242 | 151124
9 | 33:35.00 | 5:41.25 | 151125 | 176724
10 | 39:16.25 | 3:29.22 | 176725 | 192421
11 | 42:45.47 | 4:47.28 | 192422 | 213974
Характеристики диапазона извлечения и сообщения об ошибках
Выбранный диапазон
Имя файла D:\Т.Буланова\1994.Странная встреча (Т.Буланова и гр.Летний сад)\Таня Буланова и гр.«Летний сад» - Странная встреча.wav
Пиковый уровень 68.2 %
Качество диапазона 100.0 %
CRC теста 3AE13249
CRC копии 3AE13249
Копирование... OK
Ошибок не произошло
AccurateRip: сводка
Трек 1 нет в базе данных
Трек 2 нет в базе данных
Трек 3 нет в базе данных
Трек 4 нет в базе данных
Трек 5 нет в базе данных
Трек 6 нет в базе данных
Трек 7 нет в базе данных
Трек 8 нет в базе данных
Трек 9 нет в базе данных
Трек 10 нет в базе данных
Трек 11 нет в базе данных
Ни одного трека нет в базе AccurateRip
Конец отчёта

1995.Обратный билет

1.Мост любви
2.Королевна
3.Берег мой
4.Ты приснись
5.Чья вина
6.Спаси и помилуй
7.Кем ты стал
8.Обратный билет
9.Ничего хорошего

Back

Лог

Exact Audio Copy V0.99 prebeta 4 from 23. January 2008
Отчёт EAC об извлечении, выполненном 28. декабря 2008, 8:35
Tаня Буланова / Обратный билет
Дисковод: ASUS DRW-1814BL Adapter: 3 ID: 0
Режим чтения : Достоверность
Использование точного потока : Да
Отключение кэша аудио : Да
Использование указателей C2 : Нет
Коррекция смещения при чтении : 6
Способность читать области Lead-in и Lead-out : Нет
Заполнение пропущенных сэмплов тишиной : Да
Удаление блоков с тишиной в начале и конце : Нет
При вычислениях CRC использовались нулевые сэмплы : Да
Интерфейс : Встроенный Win32-интерфейс для Win NT/2000
Выходной формат : Внутренние WAV-операции
Формат сэмплов : 44.100 Гц; 16 бит; стерео
TOC извлечённого CD
Трек | Старт | Длительность | Начальный сектор | Конечный сектор
---------------------------------------------------------------------
1 | 0:00.10 | 4:29.22 | 10 | 20206
2 | 4:29.32 | 3:48.08 | 20207 | 37314
3 | 8:17.40 | 3:16.05 | 37315 | 52019
4 | 11:33.45 | 3:38.70 | 52020 | 68439
5 | 15:12.40 | 3:04.65 | 68440 | 82304
6 | 18:17.30 | 4:08.20 | 82305 | 100924
7 | 22:25.50 | 4:06.22 | 100925 | 119396
8 | 26:31.72 | 3:43.70 | 119397 | 136191
9 | 30:15.67 | 4:59.25 | 136192 | 158641
Характеристики диапазона извлечения и сообщения об ошибках
Выбранный диапазон
Имя файла D:\Т.Буланова\1995.Обратный билет\Tаня Буланова - Обратный билет.wav
Пиковый уровень 96.6 %
Качество диапазона 99.9 %
CRC теста E2584614
CRC копии E2584614
Копирование... OK
Ошибок не произошло
AccurateRip: сводка
Трек 1 нет в базе данных
Трек 2 нет в базе данных
Трек 3 нет в базе данных
Трек 4 нет в базе данных
Трек 5 нет в базе данных
Трек 6 нет в базе данных
Трек 7 нет в базе данных
Трек 8 нет в базе данных
Трек 9 нет в базе данных
Ни одного трека нет в базе AccurateRip
Конец отчёта

1996.Мое русское сердце

01.Ясный мой свет
02.Правда не ложь
03.Загадка-осень
04.Купи-продай
05.Мама
06.Бегущая по волнам
07.Матушка-Россия
08.Уходи к другой
09.Лети,коровка божья
10.Птица Феникс

Back

Лог

Exact Audio Copy V0.99 prebeta 4 from 23. January 2008
Отчёт EAC об извлечении, выполненном 30. декабря 2008, 9:39
Татьяна Буланова / Мое русское сердце
Дисковод: ASUS DRW-1814BL Adapter: 3 ID: 0
Режим чтения : Достоверность
Использование точного потока : Да
Отключение кэша аудио : Да
Использование указателей C2 : Нет
Коррекция смещения при чтении : 6
Способность читать области Lead-in и Lead-out : Нет
Заполнение пропущенных сэмплов тишиной : Да
Удаление блоков с тишиной в начале и конце : Нет
При вычислениях CRC использовались нулевые сэмплы : Да
Интерфейс : Встроенный Win32-интерфейс для Win NT/2000
Выходной формат : Внутренние WAV-операции
Формат сэмплов : 44.100 Гц; 16 бит; стерео
TOC извлечённого CD
Трек | Старт | Длительность | Начальный сектор | Конечный сектор
---------------------------------------------------------------------
1 | 0:00.10 | 3:29.15 | 10 | 15699
2 | 3:29.25 | 2:54.22 | 15700 | 28771
3 | 6:23.47 | 4:12.33 | 28772 | 47704
4 | 10:36.05 | 3:11.45 | 47705 | 62074
5 | 13:47.50 | 5:09.25 | 62075 | 85274
6 | 18:57.00 | 4:03.52 | 85275 | 103551
7 | 23:00.52 | 4:09.50 | 103552 | 122276
8 | 27:10.27 | 3:54.68 | 122277 | 139894
9 | 31:05.20 | 3:23.15 | 139895 | 155134
10 | 34:28.35 | 3:56.47 | 155135 | 172881
Характеристики диапазона извлечения и сообщения об ошибках
Выбранный диапазон
Имя файла D:\Т.Буланова\1996.Мое русское сердце\Татьяна Буланова - Мое русское сердце.wav
Пиковый уровень 98.8 %
Качество диапазона 99.8 %
CRC теста 43BC6710
CRC копии 43BC6710
Копирование... OK
Ошибок не произошло
AccurateRip: сводка
Трек 1 нет в базе данных
Трек 2 нет в базе данных
Трек 3 нет в базе данных
Трек 4 нет в базе данных
Трек 5 нет в базе данных
Трек 6 нет в базе данных
Трек 7 нет в базе данных
Трек 8 нет в базе данных
Трек 9 нет в базе данных
Трек 10 нет в базе данных
Ни одного трека нет в базе AccurateRip
Конец отчёта

1997.Стерпится-слюбится

01.Мой ненаглядный
02.Просто весна
03.Вот и солнце село
04.Серебристый тополь
05.Золушка
06.Нежность
07.Гори-догорай
08.Коростель
09.Ты украл любовь
10.Птица
11.Змей
12.Стерпиться-слюбиться

Back

Лог

Exact Audio Copy V0.99 prebeta 4 from 23. January 2008
Отчёт EAC об извлечении, выполненном 28. декабря 2008, 9:17
Татьяна Буланова / Стерпиться - слюбиться
Дисковод: ASUS DRW-1814BL Adapter: 3 ID: 0
Режим чтения : Достоверность
Использование точного потока : Да
Отключение кэша аудио : Да
Использование указателей C2 : Нет
Коррекция смещения при чтении : 6
Способность читать области Lead-in и Lead-out : Нет
Заполнение пропущенных сэмплов тишиной : Да
Удаление блоков с тишиной в начале и конце : Нет
При вычислениях CRC использовались нулевые сэмплы : Да
Интерфейс : Встроенный Win32-интерфейс для Win NT/2000
Выходной формат : Внутренние WAV-операции
Формат сэмплов : 44.100 Гц; 16 бит; стерео
TOC извлечённого CD
Трек | Старт | Длительность | Начальный сектор | Конечный сектор
---------------------------------------------------------------------
1 | 0:00.10 | 4:02.15 | 10 | 18174
2 | 4:02.25 | 4:24.57 | 18175 | 38031
3 | 8:27.07 | 4:12.28 | 38032 | 56959
4 | 12:39.35 | 3:25.72 | 56960 | 72406
5 | 16:05.32 | 3:55.03 | 72407 | 90034
6 | 20:00.35 | 3:15.37 | 90035 | 104696
7 | 23:15.72 | 3:49.55 | 104697 | 121926
8 | 27:05.52 | 5:45.00 | 121927 | 147801
9 | 32:50.52 | 3:26.18 | 147802 | 163269
10 | 36:16.70 | 4:05.00 | 163270 | 181644
11 | 40:21.70 | 3:38.07 | 181645 | 198001
12 | 44:00.02 | 3:44.38 | 198002 | 214839
Характеристики диапазона извлечения и сообщения об ошибках
Выбранный диапазон
Имя файла D:\Т.Буланова\1997.Стерпится-слюбится\Татьяна Буланова - Стерпиться - слюбиться.wav
Пиковый уровень 97.7 %
Качество диапазона 100.0 %
CRC теста E8F41803
CRC копии E8F41803
Копирование... OK
Ошибок не произошло
AccurateRip: сводка
Трек 1 нет в базе данных
Трек 2 нет в базе данных
Трек 3 нет в базе данных
Трек 4 нет в базе данных
Трек 5 нет в базе данных
Трек 6 нет в базе данных
Трек 7 нет в базе данных
Трек 8 нет в базе данных
Трек 9 нет в базе данных
Трек 10 нет в базе данных
Трек 11 нет в базе данных
Трек 12 нет в базе данных
Ни одного трека нет в базе AccurateRip
Конец отчёта

1998.Женское сердце

01.Пела я тебе
02.Не со мной
03.Карусель
04.Ангел - хранитель
05.Два кольца
06.Чужая свадьба
07.Закрой за любовью дверь
08.Тили-тили тесто
09.Грива красного коня
10.Не отрекайся любя
11.Женское сердце
12.Ледяное сердце

Back

Лог

Exact Audio Copy V0.99 prebeta 4 from 23. January 2008
Отчёт EAC об извлечении, выполненном 28. декабря 2008, 9:38
Татьяна Буланова / Женское сердце
Дисковод: ASUS DRW-1814BL Adapter: 3 ID: 0
Режим чтения : Достоверность
Использование точного потока : Да
Отключение кэша аудио : Да
Использование указателей C2 : Нет
Коррекция смещения при чтении : 6
Способность читать области Lead-in и Lead-out : Нет
Заполнение пропущенных сэмплов тишиной : Да
Удаление блоков с тишиной в начале и конце : Нет
При вычислениях CRC использовались нулевые сэмплы : Да
Интерфейс : Встроенный Win32-интерфейс для Win NT/2000
Выходной формат : Внутренние WAV-операции
Формат сэмплов : 44.100 Гц; 16 бит; стерео
TOC извлечённого CD
Трек | Старт | Длительность | Начальный сектор | Конечный сектор
---------------------------------------------------------------------
1 | 0:00.00 | 3:32.66 | 0 | 15965
2 | 3:32.66 | 4:07.69 | 15966 | 34559
3 | 7:40.60 | 3:26.00 | 34560 | 50009
4 | 11:06.60 | 4:07.00 | 50010 | 68534
5 | 15:13.60 | 3:46.38 | 68535 | 85522
6 | 19:00.23 | 3:49.43 | 85523 | 102740
7 | 22:49.66 | 5:07.33 | 102741 | 125798
8 | 27:57.24 | 3:30.05 | 125799 | 141553
9 | 31:27.29 | 3:38.45 | 141554 | 157948
10 | 35:05.74 | 3:44.00 | 157949 | 174748
11 | 38:49.74 | 2:57.60 | 174749 | 188083
12 | 41:47.59 | 4:26.43 | 188084 | 208076
Характеристики диапазона извлечения и сообщения об ошибках
Выбранный диапазон
Имя файла D:\Т.Буланова\1998.Женское сердце\Татьяна Буланова - Женское сердце.wav
Пиковый уровень 98.8 %
Качество диапазона 100.0 %
CRC теста 9FBDE258
CRC копии 9FBDE258
Копирование... OK
Ошибок не произошло
AccurateRip: сводка
Трек 1 нет в базе данных
Трек 2 нет в базе данных
Трек 3 нет в базе данных
Трек 4 нет в базе данных
Трек 5 нет в базе данных
Трек 6 нет в базе данных
Трек 7 нет в базе данных
Трек 8 нет в базе данных
Трек 9 нет в базе данных
Трек 10 нет в базе данных
Трек 11 нет в базе данных
Трек 12 нет в базе данных
Ни одного трека нет в базе AccurateRip
Конец отчёта

1999.Стая

01.Мало не много
02.Ветер пел
03.Мертвые цветы
04.Пристань на ветру
05.Шарманка
06.Радуга-дуга
07.Стая
08.Обманула
09.Иванов день
10.Любовь

Back

Лог

Exact Audio Copy V0.99 prebeta 4 from 23. January 2008
Отчёт EAC об извлечении, выполненном 28. декабря 2008, 9:51
Таня Буланова / Стая
Дисковод: ASUS DRW-1814BL Adapter: 3 ID: 0
Режим чтения : Достоверность
Использование точного потока : Да
Отключение кэша аудио : Да
Использование указателей C2 : Нет
Коррекция смещения при чтении : 6
Способность читать области Lead-in и Lead-out : Нет
Заполнение пропущенных сэмплов тишиной : Да
Удаление блоков с тишиной в начале и конце : Нет
При вычислениях CRC использовались нулевые сэмплы : Да
Интерфейс : Встроенный Win32-интерфейс для Win NT/2000
Выходной формат : Внутренние WAV-операции
Формат сэмплов : 44.100 Гц; 16 бит; стерео
TOC извлечённого CD
Трек | Старт | Длительность | Начальный сектор | Конечный сектор
---------------------------------------------------------------------
1 | 0:00.00 | 4:28.09 | 0 | 20108
2 | 4:28.09 | 3:39.39 | 20109 | 36572
3 | 8:07.48 | 4:07.36 | 36573 | 55133
4 | 12:15.09 | 4:15.00 | 55134 | 74258
5 | 16:30.09 | 3:59.07 | 74259 | 92190
6 | 20:29.16 | 4:57.55 | 92191 | 114520
7 | 25:26.71 | 3:46.42 | 114521 | 131512
8 | 29:13.38 | 3:59.42 | 131513 | 149479
9 | 33:13.05 | 3:52.68 | 149480 | 166947
10 | 37:05.73 | 4:18.01 | 166948 | 186298
Характеристики диапазона извлечения и сообщения об ошибках
Выбранный диапазон
Имя файла D:\Т.Буланова\1999.Стая\Таня Буланова - Стая.wav
Пиковый уровень 97.7 %
Качество диапазона 100.0 %
CRC теста 2F44907B
CRC копии 2F44907B
Копирование... OK
Ошибок не произошло
AccurateRip: сводка
Трек 1 точность не определена (достоверность 1) [7787836F], AccurateRip вернул [29A761F6]
Трек 2 точность не определена (достоверность 1) [AA82CF3D], AccurateRip вернул [6B36B34D]
Трек 3 точность не определена (достоверность 1) [DB491286], AccurateRip вернул [BDEDA86E]
Трек 4 точность не определена (достоверность 1) [AB71F631], AccurateRip вернул [BEB7E3A9]
Трек 5 точность не определена (достоверность 1) [95FE135B], AccurateRip вернул [EE9591A3]
Трек 6 точность не определена (достоверность 1) [1D63E01C], AccurateRip вернул [6ED383F4]
Трек 7 точность не определена (достоверность 1) [B25B7703], AccurateRip вернул [2A88C253]
Трек 8 точность не определена (достоверность 1) [F5CB58CD], AccurateRip вернул [8D05551D]
Трек 9 точность не определена (достоверность 1) [C884994C], AccurateRip вернул [3C1FFB74]
Трек 10 точность не определена (достоверность 1) [E8FB3117], AccurateRip вернул [ADFF621F]
Ни один трек не прошёл проверки на точность
В вашей базе может быть иной вариант штамповки диска
Конец отчёта

2000.Мой сон (Таня Буланова и DJ ЦВеткоff) переиздание 2004г.

01.Тебя люблю
02.Возвращайся
03.Мой сон
04.Снежинка
05.Любимые цветы
06.Падаю
07.Слезы ни о чем
08.Верю,знаю
09.Баллада
10.Новая сила
11.Лето-зима
12.Ты уже не придешь

Back

Лог

Exact Audio Copy V0.99 prebeta 4 from 23. January 2008
Отчёт EAC об извлечении, выполненном 28. декабря 2008, 11:11
Таня Буланова и DJ ЦВеткоff / Мой сон
Дисковод: ASUS DRW-1814BL Adapter: 3 ID: 0
Режим чтения : Достоверность
Использование точного потока : Да
Отключение кэша аудио : Да
Использование указателей C2 : Нет
Коррекция смещения при чтении : 6
Способность читать области Lead-in и Lead-out : Нет
Заполнение пропущенных сэмплов тишиной : Да
Удаление блоков с тишиной в начале и конце : Нет
При вычислениях CRC использовались нулевые сэмплы : Да
Интерфейс : Встроенный Win32-интерфейс для Win NT/2000
Выходной формат : Внутренние WAV-операции
Формат сэмплов : 44.100 Гц; 16 бит; стерео
TOC извлечённого CD
Трек | Старт | Длительность | Начальный сектор | Конечный сектор
---------------------------------------------------------------------
1 | 0:00.00 | 5:59.00 | 0 | 26924
2 | 5:59.00 | 4:48.00 | 26925 | 48524
3 | 10:47.00 | 5:04.00 | 48525 | 71324
4 | 15:51.00 | 3:44.00 | 71325 | 88124
5 | 19:35.00 | 4:01.00 | 88125 | 106199
6 | 23:36.00 | 3:59.00 | 106200 | 124124
7 | 27:35.00 | 5:02.00 | 124125 | 146774
8 | 32:37.00 | 4:17.00 | 146775 | 166049
9 | 36:54.00 | 4:18.00 | 166050 | 185399
10 | 41:12.00 | 4:58.00 | 185400 | 207749
11 | 46:10.00 | 4:36.00 | 207750 | 228449
12 | 50:46.00 | 4:38.00 | 228450 | 249299
Характеристики диапазона извлечения и сообщения об ошибках
Выбранный диапазон
Имя файла D:\Т.Буланова\2004.Мой сон (Таня Буланова и DJ ЦВеткоff)\Таня Буланова и DJ ЦВеткоff - Мой сон.wav
Пиковый уровень 96.8 %
Качество диапазона 100.0 %
CRC теста 97164ABC
CRC копии 97164ABC
Копирование... OK
Ошибок не произошло
AccurateRip: сводка
Трек 1 нет в базе данных
Трек 2 нет в базе данных
Трек 3 нет в базе данных
Трек 4 нет в базе данных
Трек 5 нет в базе данных
Трек 6 нет в базе данных
Трек 7 нет в базе данных
Трек 8 нет в базе данных
Трек 9 нет в базе данных
Трек 10 нет в базе данных
Трек 11 нет в базе данных
Трек 12 нет в базе данных
Ни одного трека нет в базе AccurateRip
Конец отчёта

2001.День Рождения

01.День Рождения
02.Дым сигарет
03.Алешка Кудряшов
04.Там,где кончается осень
05.Белая ночь
06.Теплоход
07.Аккордеонист
08.Крепкий орешек
09.Последний звонок
10.Под Новый Год
11.Ты для меня чужой
12.Padam Padam (из проекта «Старые песни о главном.Поскриптум»)

Back

Лог

Exact Audio Copy V0.99 prebeta 4 from 23. January 2008
Отчёт EAC об извлечении, выполненном 28. декабря 2008, 11:30
Таня Буланова / День Рождения
Дисковод: ASUS DRW-1814BL Adapter: 3 ID: 0
Режим чтения : Достоверность
Использование точного потока : Да
Отключение кэша аудио : Да
Использование указателей C2 : Нет
Коррекция смещения при чтении : 6
Способность читать области Lead-in и Lead-out : Нет
Заполнение пропущенных сэмплов тишиной : Да
Удаление блоков с тишиной в начале и конце : Нет
При вычислениях CRC использовались нулевые сэмплы : Да
Интерфейс : Встроенный Win32-интерфейс для Win NT/2000
Выходной формат : Внутренние WAV-операции
Формат сэмплов : 44.100 Гц; 16 бит; стерео
TOC извлечённого CD
Трек | Старт | Длительность | Начальный сектор | Конечный сектор
---------------------------------------------------------------------
1 | 0:00.00 | 3:28.24 | 0 | 15623
2 | 3:28.24 | 3:17.72 | 15624 | 30470
3 | 6:46.21 | 3:06.31 | 30471 | 44451
4 | 9:52.52 | 3:38.71 | 44452 | 60872
5 | 13:31.48 | 3:54.05 | 60873 | 78427
6 | 17:25.53 | 3:24.60 | 78428 | 93787
7 | 20:50.38 | 3:49.48 | 93788 | 111010
8 | 24:40.11 | 3:36.34 | 111011 | 127244
9 | 28:16.45 | 2:56.10 | 127245 | 140454
10 | 31:12.55 | 3:02.14 | 140455 | 154118
11 | 34:14.69 | 5:15.35 | 154119 | 177778
12 | 39:30.29 | 3:24.00 | 177779 | 193078
Характеристики диапазона извлечения и сообщения об ошибках
Выбранный диапазон
Имя файла D:\Т.Буланова\2001.День Рождения\Таня Буланова - День Рождения.wav
Пиковый уровень 100.0 %
Качество диапазона 100.0 %
CRC теста 89B951D1
CRC копии 89B951D1
Копирование... OK
Ошибок не произошло
AccurateRip: сводка
Трек 1 нет в базе данных
Трек 2 нет в базе данных
Трек 3 нет в базе данных
Трек 4 нет в базе данных
Трек 5 нет в базе данных
Трек 6 нет в базе данных
Трек 7 нет в базе данных
Трек 8 нет в базе данных
Трек 9 нет в базе данных
Трек 10 нет в базе данных
Трек 11 нет в базе данных
Трек 12 нет в базе данных
Ни одного трека нет в базе AccurateRip
Конец отчёта

2001.Золото Любви

01.Закружилась
02.Плакала любовь
03.Золотая пора
04.Далеко Долго
05.Ты не любила
06.Снежная королева
07.Падаю я
08.Красивая любовь
09.Ты не люби его
10.Если б можно узнать...(Птицей белой)
11.Грустная повесть
12.Белые ночи

Back

Лог

Exact Audio Copy V0.99 prebeta 4 from 23. January 2008
Отчёт EAC об извлечении, выполненном 28. декабря 2008, 16:17
Таня Буланова / Золото любви
Дисковод: ASUS DRW-1814BL Adapter: 3 ID: 0
Режим чтения : Достоверность
Использование точного потока : Да
Отключение кэша аудио : Да
Использование указателей C2 : Нет
Коррекция смещения при чтении : 6
Способность читать области Lead-in и Lead-out : Нет
Заполнение пропущенных сэмплов тишиной : Да
Удаление блоков с тишиной в начале и конце : Нет
При вычислениях CRC использовались нулевые сэмплы : Да
Интерфейс : Встроенный Win32-интерфейс для Win NT/2000
Выходной формат : Внутренние WAV-операции
Формат сэмплов : 44.100 Гц; 16 бит; стерео
TOC извлечённого CD
Трек | Старт | Длительность | Начальный сектор | Конечный сектор
---------------------------------------------------------------------
1 | 0:00.00 | 4:06.65 | 0 | 18514
2 | 4:06.65 | 5:20.15 | 18515 | 42529
3 | 9:27.05 | 4:25.72 | 42530 | 62476
4 | 13:53.02 | 5:05.30 | 62477 | 85381
5 | 18:58.32 | 4:41.06 | 85382 | 106462
6 | 23:39.38 | 4:24.13 | 106463 | 126275
7 | 28:03.51 | 4:22.74 | 126276 | 145999
8 | 32:26.50 | 4:22.31 | 146000 | 165680
9 | 36:49.06 | 5:04.23 | 165681 | 188503
10 | 41:53.29 | 4:07.68 | 188504 | 207096
11 | 46:01.22 | 4:54.44 | 207097 | 229190
12 | 50:55.66 | 4:39.74 | 229191 | 250189
Характеристики диапазона извлечения и сообщения об ошибках
Выбранный диапазон
Имя файла D:\Т.Буланова\2001.Золото Любви\Таня Буланова - Золото любви.wav
Пиковый уровень 98.9 %
Качество диапазона 100.0 %
CRC теста B58F1BAA
CRC копии B58F1BAA
Копирование... OK
Ошибок не произошло
AccurateRip: сводка
Трек 1 нет в базе данных
Трек 2 нет в базе данных
Трек 3 нет в базе данных
Трек 4 нет в базе данных
Трек 5 нет в базе данных
Трек 6 нет в базе данных
Трек 7 нет в базе данных
Трек 8 нет в базе данных
Трек 9 нет в базе данных
Трек 10 нет в базе данных
Трек 11 нет в базе данных
Трек 12 нет в базе данных
Ни одного трека нет в базе AccurateRip
Конец отчёта

2001.Летний сон

01Тебя люблю
02.Возвращайся
03.Мой сон
04.Снежинка
05.Любимые цветы
06.Падаю
07.Слезы ни очем
08.Верю,знаю
09.Баллада
10.Новая сила
11. Лето-зима
12.Ты уже не придешь
13.Ты не любила
14.Далеко-долго
15.Любимые цветы (Latrack pop lilu dance mix)
16.Лето-зима (Latrack extasy techno mix)
17.Мой сон (Latrack klubbing mix)
18.Верю,знаю (Latrack ultra fresh moonstation mix)

Back

Лог

Exact Audio Copy V0.99 prebeta 4 from 23. January 2008
Отчёт EAC об извлечении, выполненном 28. декабря 2008, 16:35
Таня Буланова / Летний сон
Дисковод: ASUS DRW-1814BL Adapter: 3 ID: 0
Режим чтения : Достоверность
Использование точного потока : Да
Отключение кэша аудио : Да
Использование указателей C2 : Нет
Коррекция смещения при чтении : 6
Способность читать области Lead-in и Lead-out : Нет
Заполнение пропущенных сэмплов тишиной : Да
Удаление блоков с тишиной в начале и конце : Нет
При вычислениях CRC использовались нулевые сэмплы : Да
Интерфейс : Встроенный Win32-интерфейс для Win NT/2000
Выходной формат : Внутренние WAV-операции
Формат сэмплов : 44.100 Гц; 16 бит; стерео
TOC извлечённого CD
Трек | Старт | Длительность | Начальный сектор | Конечный сектор
---------------------------------------------------------------------
1 | 0:00.00 | 4:57.00 | 0 | 22274
2 | 4:57.00 | 4:11.00 | 22275 | 41099
3 | 9:08.00 | 4:33.00 | 41100 | 61574
4 | 13:41.00 | 3:42.00 | 61575 | 78224
5 | 17:23.00 | 3:59.00 | 78225 | 96149
6 | 21:22.00 | 3:41.00 | 96150 | 112724
7 | 25:03.00 | 4:32.00 | 112725 | 133124
8 | 29:35.00 | 3:38.00 | 133125 | 149474
9 | 33:13.00 | 4:02.00 | 149475 | 167624
10 | 37:15.00 | 4:42.00 | 167625 | 188774
11 | 41:57.00 | 3:51.00 | 188775 | 206099
12 | 45:48.00 | 4:18.00 | 206100 | 225449
13 | 50:06.00 | 4:04.00 | 225450 | 243749
14 | 54:10.00 | 5:05.00 | 243750 | 266624
15 | 59:15.00 | 3:46.00 | 266625 | 283574
16 | 63:01.00 | 3:44.00 | 283575 | 300374
17 | 66:45.00 | 3:31.00 | 300375 | 316199
18 | 70:16.00 | 3:25.00 | 316200 | 331574
Характеристики диапазона извлечения и сообщения об ошибках
Выбранный диапазон
Имя файла D:\Т.Буланова\2001.Летний сон\Таня Буланова - Летний сон.wav
Пиковый уровень 100.0 %
Качество диапазона 99.9 %
CRC теста 22BB5DB8
CRC копии 22BB5DB8
Копирование... OK
Ошибок не произошло
AccurateRip: сводка
Трек 1 нет в базе данных
Трек 2 нет в базе данных
Трек 3 нет в базе данных
Трек 4 нет в базе данных
Трек 5 нет в базе данных
Трек 6 нет в базе данных
Трек 7 нет в базе данных
Трек 8 нет в базе данных
Трек 9 нет в базе данных
Трек 10 нет в базе данных
Трек 11 нет в базе данных
Трек 12 нет в базе данных
Трек 13 нет в базе данных
Трек 14 нет в базе данных
Трек 15 нет в базе данных
Трек 16 нет в базе данных
Трек 17 нет в базе данных
Трек 18 нет в базе данных
Ни одного трека нет в базе AccurateRip
Конец отчёта

2002.Белое на красном

01.Механическое сердце
02.Мне все равно
03.Одинокая странница
04.Белый прочерк
05.Случайный прохожий
06.Все так надо
07.Позови
08.Люди,как птицы
09.Минуты
10.Простой сюжет
11.Случайный прохожий
12.Мне все равно
13.Случайный прохожий
14.Мне все равно
15.Все так надо
16.Одинокая странница

Back

Лог

Exact Audio Copy V0.99 prebeta 4 from 23. January 2008
Отчёт EAC об извлечении, выполненном 28. декабря 2008, 17:06
Таня Буланова / Белое на красном
Дисковод: ASUS DRW-1814BL Adapter: 3 ID: 0
Режим чтения : Достоверность
Использование точного потока : Да
Отключение кэша аудио : Да
Использование указателей C2 : Нет
Коррекция смещения при чтении : 6
Способность читать области Lead-in и Lead-out : Нет
Заполнение пропущенных сэмплов тишиной : Да
Удаление блоков с тишиной в начале и конце : Нет
При вычислениях CRC использовались нулевые сэмплы : Да
Интерфейс : Встроенный Win32-интерфейс для Win NT/2000
Выходной формат : Внутренние WAV-операции
Формат сэмплов : 44.100 Гц; 16 бит; стерео
TOC извлечённого CD
Трек | Старт | Длительность | Начальный сектор | Конечный сектор
---------------------------------------------------------------------
1 | 0:00.00 | 3:28.19 | 0 | 15618
2 | 3:28.19 | 3:45.25 | 15619 | 32518
3 | 7:13.44 | 4:04.34 | 32519 | 50852
4 | 11:18.03 | 4:07.44 | 50853 | 69421
5 | 15:25.47 | 3:57.42 | 69422 | 87238
6 | 19:23.14 | 3:25.39 | 87239 | 102652
7 | 22:48.53 | 3:29.26 | 102653 | 118353
8 | 26:18.04 | 4:23.40 | 118354 | 138118
9 | 30:41.44 | 4:21.53 | 138119 | 157746
10 | 35:03.22 | 3:29.19 | 157747 | 173440
11 | 38:32.41 | 3:45.73 | 173441 | 190388
12 | 42:18.39 | 3:31.50 | 190389 | 206263
13 | 45:50.14 | 3:57.08 | 206264 | 224046
14 | 49:47.22 | 3:45.20 | 224047 | 240941
15 | 53:32.42 | 3:25.22 | 240942 | 256338
16 | 56:57.64 | 4:01.66 | 256339 | 274479
Характеристики диапазона извлечения и сообщения об ошибках
Выбранный диапазон
Имя файла D:\Т.Буланова\2002.Белое на красном\Таня Буланова - Белое на красном.wav
Пиковый уровень 100.0 %
Качество диапазона 99.9 %
CRC теста B4288101
CRC копии B4288101
Копирование... OK
Ошибок не произошло
AccurateRip: сводка
Трек 1 нет в базе данных
Трек 2 нет в базе данных
Трек 3 нет в базе данных
Трек 4 нет в базе данных
Трек 5 нет в базе данных
Трек 6 нет в базе данных
Трек 7 нет в базе данных
Трек 8 нет в базе данных
Трек 9 нет в базе данных
Трек 10 нет в базе данных
Трек 11 нет в базе данных
Трек 12 нет в базе данных
Трек 13 нет в базе данных
Трек 14 нет в базе данных
Трек 15 нет в базе данных
Трек 16 нет в базе данных
Ни одного трека нет в базе AccurateRip
Конец отчёта

2002.Красное на белом

01.Случайный прохожий
02.Одинокая странница
03.Позови
04.Простой сюжет
05.Механическое сердце
06.Минуты
07.Все так надо
08.Мне все равно
09.Белый прочерк
10.Люди,как птицы
11.Случайный прохожий (караоке)
12.Мне все равно (караоке)
13.Все так надо (караоке)
14.Одинокая странница (караоке)

Back

Лог

Exact Audio Copy V0.99 prebeta 4 from 23. January 2008
Отчёт EAC об извлечении, выполненном 29. декабря 2008, 23:50
Таня Буланова / Красное на белом
Дисковод: ASUS DRW-1814BL Adapter: 3 ID: 0
Режим чтения : Достоверность
Использование точного потока : Да
Отключение кэша аудио : Да
Использование указателей C2 : Нет
Коррекция смещения при чтении : 6
Способность читать области Lead-in и Lead-out : Нет
Заполнение пропущенных сэмплов тишиной : Да
Удаление блоков с тишиной в начале и конце : Нет
При вычислениях CRC использовались нулевые сэмплы : Да
Интерфейс : Встроенный Win32-интерфейс для Win NT/2000
Выходной формат : Внутренние WAV-операции
Формат сэмплов : 44.100 Гц; 16 бит; стерео
TOC извлечённого CD
Трек | Старт | Длительность | Начальный сектор | Конечный сектор
---------------------------------------------------------------------
1 | 0:00.00 | 3:57.42 | 0 | 17816
2 | 3:57.42 | 4:04.34 | 17817 | 36150
3 | 8:02.01 | 3:29.26 | 36151 | 51851
4 | 11:31.27 | 3:29.19 | 51852 | 67545
5 | 15:00.46 | 3:28.19 | 67546 | 83164
6 | 18:28.65 | 4:21.53 | 83165 | 102792
7 | 22:50.43 | 3:25.39 | 102793 | 118206
8 | 26:16.07 | 3:45.25 | 118207 | 135106
9 | 30:01.32 | 4:07.44 | 135107 | 153675
10 | 34:09.01 | 4:23.40 | 153676 | 173440
11 | 38:32.41 | 3:57.08 | 173441 | 191223
12 | 42:29.49 | 3:45.20 | 191224 | 208118
13 | 46:14.69 | 3:25.22 | 208119 | 223515
14 | 49:40.16 | 4:01.67 | 223516 | 241657
Характеристики диапазона извлечения и сообщения об ошибках
Выбранный диапазон
Имя файла D:\Т.Буланова\2002.Красное на Белом\Таня Буланова - Красное на белом.wav
Пиковый уровень 99.3 %
Качество диапазона 100.0 %
CRC теста 0DB77A03
CRC копии 0DB77A03
Копирование... OK
Ошибок не произошло
AccurateRip: сводка
Трек 1 нет в базе данных
Трек 2 нет в базе данных
Трек 3 нет в базе данных
Трек 4 нет в базе данных
Трек 5 нет в базе данных
Трек 6 нет в базе данных
Трек 7 нет в базе данных
Трек 8 нет в базе данных
Трек 9 нет в базе данных
Трек 10 нет в базе данных
Трек 11 нет в базе данных
Трек 12 нет в базе данных
Трек 13 нет в базе данных
Трек 14 нет в базе данных
Ни одного трека нет в базе AccurateRip
Конец отчёта

2002.Антиальбом (Таня Буланова и гр.«Кардинал»)

01.Антилюбовь
02.Сдохни вампир
03.Пусть всегда будет солнце?
04.Манекен
05.Мама,это я
06.Война
07.Трудно быть богом
08.Секта
09.Wreath Of Barbs
10.Country - Psychodelic
11.Антилюбовь (radioedit)
12.Мама,это я (radioedit)
13.Пусть всегда будет солнце (hardmix)

Back

Лог

Exact Audio Copy V0.99 prebeta 4 from 23. January 2008
Отчёт EAC об извлечении, выполненном 31. декабря 2008, 3:38
Таня Буланова и гр.«Кардинал» / Антиальбом
Дисковод: ASUS DRW-1814BL Adapter: 3 ID: 0
Режим чтения : Достоверность
Использование точного потока : Да
Отключение кэша аудио : Да
Использование указателей C2 : Нет
Коррекция смещения при чтении : 6
Способность читать области Lead-in и Lead-out : Нет
Заполнение пропущенных сэмплов тишиной : Да
Удаление блоков с тишиной в начале и конце : Нет
При вычислениях CRC использовались нулевые сэмплы : Да
Интерфейс : Встроенный Win32-интерфейс для Win NT/2000
Выходной формат : Внутренние WAV-операции
Формат сэмплов : 44.100 Гц; 16 бит; стерео
TOC извлечённого CD
Трек | Старт | Длительность | Начальный сектор | Конечный сектор
---------------------------------------------------------------------
1 | 0:00.00 | 3:38.03 | 0 | 16352
2 | 3:38.03 | 3:52.61 | 16353 | 33813
3 | 7:30.64 | 4:32.55 | 33814 | 54268
4 | 12:03.44 | 4:55.07 | 54269 | 76400
5 | 16:58.51 | 6:07.19 | 76401 | 103944
6 | 23:05.70 | 5:00.24 | 103945 | 126468
7 | 28:06.19 | 4:15.64 | 126469 | 145657
8 | 32:22.08 | 4:59.15 | 145658 | 168097
9 | 37:21.23 | 3:41.08 | 168098 | 184680
10 | 41:02.31 | 3:56.34 | 184681 | 202414
11 | 44:58.65 | 2:54.73 | 202415 | 215537
12 | 47:53.63 | 3:56.73 | 215538 | 233310
13 | 51:50.61 | 4:28.44 | 233311 | 253454
Характеристики диапазона извлечения и сообщения об ошибках
Выбранный диапазон
Имя файла D:\Т.Буланова\2002.Таня Буланова и гр.«Кардинал» - Антиальбом\Таня Буланова и гр.«Кардинал» - Антиальбом.wav
Пиковый уровень 98.8 %
Качество диапазона 99.9 %
CRC теста 287BB6DE
CRC копии 287BB6DE
Копирование... OK
Ошибок не произошло
AccurateRip: сводка
Трек 1 нет в базе данных
Трек 2 нет в базе данных
Трек 3 нет в базе данных
Трек 4 нет в базе данных
Трек 5 нет в базе данных
Трек 6 нет в базе данных
Трек 7 нет в базе данных
Трек 8 нет в базе данных
Трек 9 нет в базе данных
Трек 10 нет в базе данных
Трек 11 нет в базе данных
Трек 12 нет в базе данных
Трек 13 нет в базе данных
Ни одного трека нет в базе AccurateRip
Конец отчёта

2002.Это Игра

01.Позвони
02.Любила только тебя
03.Принцесса
04.Белые дороги
05. Догони
06.Не верю
07.Да это нет
08.Улетает не любя
09.Шар в небо голубое
10.Больше чем любовь
11.Далекая даль
12.Северный ветер
13.Просто ветер

Back

Лог

Exact Audio Copy V0.99 prebeta 4 from 23. January 2008
Отчёт EAC об извлечении, выполненном 28. декабря 2008, 18:57
Таня Буланова / Это игра
Дисковод: ASUS DRW-1814BL Adapter: 3 ID: 0
Режим чтения : Достоверность
Использование точного потока : Да
Отключение кэша аудио : Да
Использование указателей C2 : Нет
Коррекция смещения при чтении : 6
Способность читать области Lead-in и Lead-out : Нет
Заполнение пропущенных сэмплов тишиной : Да
Удаление блоков с тишиной в начале и конце : Нет
При вычислениях CRC использовались нулевые сэмплы : Да
Интерфейс : Встроенный Win32-интерфейс для Win NT/2000
Выходной формат : Внутренние WAV-операции
Формат сэмплов : 44.100 Гц; 16 бит; стерео
TOC извлечённого CD
Трек | Старт | Длительность | Начальный сектор | Конечный сектор
---------------------------------------------------------------------
1 | 0:00.00 | 3:34.07 | 0 | 16056
2 | 3:34.07 | 5:00.47 | 16057 | 38603
3 | 8:34.54 | 4:07.50 | 38604 | 57178
4 | 12:42.29 | 4:40.73 | 57179 | 78251
5 | 17:23.27 | 3:38.43 | 78252 | 94644
6 | 21:01.70 | 4:58.10 | 94645 | 117004
7 | 26:00.05 | 4:31.42 | 117005 | 137371
8 | 30:31.47 | 4:18.35 | 137372 | 156756
9 | 34:50.07 | 4:30.71 | 156757 | 177077
10 | 39:21.03 | 4:16.42 | 177078 | 196319
11 | 43:37.45 | 4:06.06 | 196320 | 214775
12 | 47:43.51 | 4:36.30 | 214776 | 235505
13 | 52:20.06 | 3:53.41 | 235506 | 253021
Характеристики диапазона извлечения и сообщения об ошибках
Выбранный диапазон
Имя файла D:\Т.Буланова\2002.Это Игра\Таня Буланова - Это игра.wav
Пиковый уровень 99.9 %
Качество диапазона 100.0 %
CRC теста EF7874E1
CRC копии EF7874E1
Копирование... OK
Ошибок не произошло
AccurateRip: сводка
Трек 1 точное извлечение (доверие 3) [04004A66]
Трек 2 точное извлечение (доверие 3) [4198A96B]
Трек 3 точное извлечение (доверие 3) [9E382066]
Трек 4 точное извлечение (доверие 3) [8815082F]
Трек 5 точное извлечение (доверие 3) [9FA5AF2E]
Трек 6 точное извлечение (доверие 3) [655FA0A8]
Трек 7 точное извлечение (доверие 3) [619E4ECA]
Трек 8 точное извлечение (доверие 2) [1F07C012]
Трек 9 точное извлечение (доверие 2) [8AFBBEA6]
Трек 10 точное извлечение (доверие 2) [E50DBFDF]
Трек 11 точное извлечение (доверие 3) [D7607867]
Трек 12 точное извлечение (доверие 3) [20B4650D]
Трек 13 точное извлечение (доверие 3) [846E0A57]
Все треки извлечены точно
Конец отчёта

2003.Любовь

01.Если мы русские
02.Встреча
03.На карнавал
04.Любовь
05.Не пожелаю зла
06. На берегу
07.Праздник
08.Зима
09.У музыки в плену ; Колыбельная ; День рождения
10.Жираф
11.Любовь (дуэт с М. Боярским)
12. Улетай!

Back

Лог

Exact Audio Copy V0.99 prebeta 4 from 23. January 2008
Отчёт EAC об извлечении, выполненном 28. декабря 2008, 19:36
Татьяна Буланова / Любовь
Дисковод: ASUS DRW-1814BL Adapter: 3 ID: 0
Режим чтения : Достоверность
Использование точного потока : Да
Отключение кэша аудио : Да
Использование указателей C2 : Нет
Коррекция смещения при чтении : 6
Способность читать области Lead-in и Lead-out : Нет
Заполнение пропущенных сэмплов тишиной : Да
Удаление блоков с тишиной в начале и конце : Нет
При вычислениях CRC использовались нулевые сэмплы : Да
Интерфейс : Встроенный Win32-интерфейс для Win NT/2000
Выходной формат : Внутренние WAV-операции
Формат сэмплов : 44.100 Гц; 16 бит; стерео
TOC извлечённого CD
Трек | Старт | Длительность | Начальный сектор | Конечный сектор
---------------------------------------------------------------------
1 | 0:00.00 | 4:31.41 | 0 | 20365
2 | 4:31.41 | 4:13.45 | 20366 | 39385
3 | 8:45.11 | 3:17.23 | 39386 | 54183
4 | 12:02.34 | 3:36.05 | 54184 | 70388
5 | 15:38.39 | 3:16.28 | 70389 | 85116
6 | 18:54.67 | 4:03.24 | 85117 | 103365
7 | 22:58.16 | 3:27.22 | 103366 | 118912
8 | 26:25.38 | 3:01.53 | 118913 | 132540
9 | 29:27.16 | 12:17.47 | 132541 | 187862
10 | 41:44.63 | 2:32.15 | 187863 | 199277
11 | 44:17.03 | 3:35.71 | 199278 | 215473
12 | 47:52.74 | 3:24.61 | 215474 | 230834
Характеристики диапазона извлечения и сообщения об ошибках
Выбранный диапазон
Имя файла D:\Т.Буланова\2003.Любовь\Татьяна Буланова - Любовь.wav
Пиковый уровень 100.0 %
Качество диапазона 100.0 %
CRC теста 53EC2C40
CRC копии 53EC2C40
Копирование... OK
Ошибок не произошло
AccurateRip: сводка
Трек 1 нет в базе данных
Трек 2 нет в базе данных
Трек 3 нет в базе данных
Трек 4 нет в базе данных
Трек 5 нет в базе данных
Трек 6 нет в базе данных
Трек 7 нет в базе данных
Трек 8 нет в базе данных
Трек 9 нет в базе данных
Трек 10 нет в базе данных
Трек 11 нет в базе данных
Трек 12 нет в базе данных
Ни одного трека нет в базе AccurateRip
Конец отчёта

2004.Белая черемуха

01.Вот такие дела
02.Белая черемуха
03.Мы летим за облака
04.Зеленые огни
05.Карточный домик
06.Дождь стучит в моё окно
07.Ангел
08.Знаки
09.Свеча на ветру
10.Бедные цветы
11.Не тот
12.Слезы на ладонях
13.Осень
14.Зонтик
15.Какая нелепость
16.Вот такие дела (ремикс)

Back

Лог

Exact Audio Copy V0.99 prebeta 4 from 23. January 2008
Отчёт EAC об извлечении, выполненном 30. декабря 2008, 2:38
Таня Буланова / Белая черемуха
Дисковод: ASUS DRW-1814BL Adapter: 3 ID: 0
Режим чтения : Достоверность
Использование точного потока : Да
Отключение кэша аудио : Да
Использование указателей C2 : Нет
Коррекция смещения при чтении : 6
Способность читать области Lead-in и Lead-out : Нет
Заполнение пропущенных сэмплов тишиной : Да
Удаление блоков с тишиной в начале и конце : Нет
При вычислениях CRC использовались нулевые сэмплы : Да
Интерфейс : Встроенный Win32-интерфейс для Win NT/2000
Выходной формат : Внутренние WAV-операции
Формат сэмплов : 44.100 Гц; 16 бит; стерео
TOC извлечённого CD
Трек | Старт | Длительность | Начальный сектор | Конечный сектор
---------------------------------------------------------------------
1 | 0:00.00 | 4:09.33 | 0 | 18707
2 | 4:09.33 | 4:24.48 | 18708 | 38555
3 | 8:34.06 | 4:12.11 | 38556 | 57466
4 | 12:46.17 | 3:51.66 | 57467 | 74857
5 | 16:38.08 | 4:03.74 | 74858 | 93156
6 | 20:42.07 | 3:34.13 | 93157 | 109219
7 | 24:16.20 | 4:23.33 | 109220 | 128977
8 | 28:39.53 | 4:46.27 | 128978 | 150454
9 | 33:26.05 | 3:35.61 | 150455 | 166640
10 | 37:01.66 | 4:25.37 | 166641 | 186552
11 | 41:27.28 | 3:36.38 | 186553 | 202790
12 | 45:03.66 | 4:10.50 | 202791 | 221590
13 | 49:14.41 | 4:35.65 | 221591 | 242280
14 | 53:50.31 | 4:31.43 | 242281 | 262648
15 | 58:21.74 | 3:55.03 | 262649 | 280276
16 | 62:17.02 | 3:53.38 | 280277 | 297789
17 | 66:10.40 | 3:19.41 | 297790 | 312755
Характеристики диапазона извлечения и сообщения об ошибках
Выбранный диапазон
Имя файла D:\Т.Буланова\2004.Белая черемуха\Таня Буланова - Белая черемуха.wav
Пиковый уровень 98.8 %
Качество диапазона 99.9 %
CRC теста 6B0CD693
CRC копии 6B0CD693
Копирование... OK
Ошибок не произошло
AccurateRip: сводка
Трек 1 нет в базе данных
Трек 2 нет в базе данных
Трек 3 нет в базе данных
Трек 4 нет в базе данных
Трек 5 нет в базе данных
Трек 6 нет в базе данных
Трек 7 нет в базе данных
Трек 8 нет в базе данных
Трек 9 нет в базе данных
Трек 10 нет в базе данных
Трек 11 нет в базе данных
Трек 12 нет в базе данных
Трек 13 нет в базе данных
Трек 14 нет в базе данных
Трек 15 нет в базе данных
Трек 16 нет в базе данных
Трек 17 нет в базе данных
Ни одного трека нет в базе AccurateRip
Конец отчёта

2005.Летела Душа

01.Хочешь?
02.Вот и все
03.Осени в глаза
04.Улетели листья
05.Летела душа
06.Осенний дождь
07.Белая метель
08.Не грусти,не жалей
09.Самое главное
10.Зимнее солнце

Back

Лог

Exact Audio Copy V0.99 prebeta 4 from 23. January 2008
Отчёт EAC об извлечении, выполненном 29. декабря 2008, 6:17
Таня Буланова / Летела душа
Дисковод: ASUS DRW-1814BL Adapter: 3 ID: 0
Режим чтения : Достоверность
Использование точного потока : Да
Отключение кэша аудио : Да
Использование указателей C2 : Нет
Коррекция смещения при чтении : 6
Способность читать области Lead-in и Lead-out : Нет
Заполнение пропущенных сэмплов тишиной : Да
Удаление блоков с тишиной в начале и конце : Нет
При вычислениях CRC использовались нулевые сэмплы : Да
Интерфейс : Встроенный Win32-интерфейс для Win NT/2000
Выходной формат : Внутренние WAV-операции
Формат сэмплов : 44.100 Гц; 16 бит; стерео
TOC извлечённого CD
Трек | Старт | Длительность | Начальный сектор | Конечный сектор
---------------------------------------------------------------------
1 | 0:00.00 | 3:33.19 | 0 | 15993
2 | 3:33.19 | 3:48.73 | 15994 | 33166
3 | 7:22.17 | 3:54.10 | 33167 | 50726
4 | 11:16.27 | 4:14.27 | 50727 | 69803
5 | 15:30.54 | 3:44.01 | 69804 | 86604
6 | 19:14.55 | 3:59.40 | 86605 | 104569
7 | 23:14.20 | 4:11.41 | 104570 | 123435
8 | 27:25.61 | 3:45.62 | 123436 | 140372
9 | 31:11.48 | 4:01.71 | 140373 | 158518
10 | 35:13.44 | 4:39.30 | 158519 | 179473
11 | 42:24.74 | 8:11.51 | 190874 | 227749
Характеристики диапазона извлечения и сообщения об ошибках
Выбранный диапазон
Имя файла D:\Т.Буланова\2005.Летела Душа\Таня Буланова - Летела душа.wav
Пиковый уровень 98.9 %
Качество диапазона 100.0 %
CRC теста 5A5DD3F1
CRC копии 5A5DD3F1
Копирование... OK
Ошибок не произошло
AccurateRip: сводка
Трек 1 нет в базе данных
Трек 2 нет в базе данных
Трек 3 нет в базе данных
Трек 4 нет в базе данных
Трек 5 нет в базе данных
Трек 6 нет в базе данных
Трек 7 нет в базе данных
Трек 8 нет в базе данных
Трек 9 нет в базе данных
Трек 10 нет в базе данных
Ни одного трека нет в базе AccurateRip
Конец отчёта

2007.Люблю и скучаю

01.Черемуха
02.Таня,Таня
03.Любили,мечтали
04.Я буду ждать и помнить
05.Корабли
06.Половина
07.Тук-тук
08.Притяжение
09.Люблю и скучаю
10.Люблю тебя
11.От зари до зари
12.Поезд ночной
13.Как-нибудь

Back

Лог

Exact Audio Copy V0.99 prebeta 4 from 23. January 2008
Отчёт EAC об извлечении, выполненном 30. декабря 2008, 0:07
Татьяна Буланова / Люблю и скучаю
Дисковод: ASUS DRW-1814BL Adapter: 3 ID: 0
Режим чтения : Достоверность
Использование точного потока : Да
Отключение кэша аудио : Да
Использование указателей C2 : Нет
Коррекция смещения при чтении : 6
Способность читать области Lead-in и Lead-out : Нет
Заполнение пропущенных сэмплов тишиной : Да
Удаление блоков с тишиной в начале и конце : Нет
При вычислениях CRC использовались нулевые сэмплы : Да
Интерфейс : Встроенный Win32-интерфейс для Win NT/2000
Выходной формат : Внутренние WAV-операции
Формат сэмплов : 44.100 Гц; 16 бит; стерео
TOC извлечённого CD
Трек | Старт | Длительность | Начальный сектор | Конечный сектор
---------------------------------------------------------------------
1 | 0:00.00 | 3:20.55 | 0 | 15054
2 | 3:20.55 | 4:15.01 | 15055 | 34180
3 | 7:35.56 | 3:39.56 | 34181 | 50661
4 | 11:15.37 | 3:37.72 | 50662 | 67008
5 | 14:53.34 | 4:31.56 | 67009 | 87389
6 | 19:25.15 | 4:18.74 | 87390 | 106813
7 | 23:44.14 | 3:26.11 | 106814 | 122274
8 | 27:10.25 | 3:30.36 | 122275 | 138060
9 | 30:40.61 | 4:05.62 | 138061 | 156497
10 | 34:46.48 | 2:55.56 | 156498 | 169678
11 | 37:42.29 | 3:38.05 | 169679 | 186033
12 | 41:20.34 | 3:14.22 | 186034 | 200605
13 | 44:34.56 | 3:22.09 | 200606 | 215764
Характеристики диапазона извлечения и сообщения об ошибках
Выбранный диапазон
Имя файла D:\Т.Буланова\2007.Люблю и скучаю\Татьяна Буланова - Люблю и скучаю.wav
Пиковый уровень 100.0 %
Качество диапазона 100.0 %
CRC теста 23AB8DA7
CRC копии 23AB8DA7
Копирование... OK
Ошибок не произошло
AccurateRip: сводка
Трек 1 нет в базе данных
Трек 2 нет в базе данных
Трек 3 нет в базе данных
Трек 4 нет в базе данных
Трек 5 нет в базе данных
Трек 6 нет в базе данных
Трек 7 нет в базе данных
Трек 8 нет в базе данных
Трек 9 нет в базе данных
Трек 10 нет в базе данных
Трек 11 нет в базе данных
Трек 12 нет в базе данных
Трек 13 нет в базе данных
Ни одного трека нет в базе AccurateRip
Конец отчёта
-

Биография

БУЛАНОВА ТАТЬЯНА ИВАНОВНА родилась в Ленинграде 6 марта 1969 года,в семье военного.Ее отец-Иван Петрович-окончил Саратовское военно-морское училище и Ленинградское училище подводного плавания,служил минером торпедистом на Севере.В 1968 году окончил Военно-морскую академию и остался там работать начальником лаборатории.В отставку ушел в 1990 году с должности старшего преподавателя в звании капитана первого ранга.Мама Татьяны одно время работала фотографом,но затем вынуждена была целиком посвятить себя воспитанию детей.Детство Булановой проходило в Питере и не было отмечено ничем выдающимся.В школе Таня училась хорошо и среди одноклассниц ничем не выделялась.Любовь к музыке Тане привили родители,отдавшие дочь в музыкальную школу.После окончания средней школы Татьяна по настоянию родителей поступила на библиотечный факультет Института культуры.Однако нелюбовь к будущей профессии обнаружилась довольно скоро,и Татьяна бросила институт ради школы-студии Ленинградского мюзик-холла.Как-то вечером Татьяна возвращалась домой,и на трамвайной остановке с ней познакомился симпатичный молодой человек,Коля Тагрин.Как выяснилось,он играл на гитаре в группе "Летний сад",которую сам и создал,и искал солистку.Узнав,что Татьяна имеет отношение к музыке,он предложил ей занять это вакантное место.И Татьяна согласилась.Вскоре группа засела в студии и приступила к записи своего первого альбома.Наконец в декадре 1989 года свет увидел их первый альбом-"25 гвоздик".А через год появился второй-"Не плачь",который и принес Татьяне Булановой и "Летнему саду"широкую известность Одноименный шлягер из этого альбома в те дни звучал чуть ли не из каждого раскрытого окна.Кстати,именно с этой песни за Булановой закрепилось звание "плачущей певицы".Отныне а каждом альбоме "Летнего сада" было две-три песни,в которых Буланова обильно проливала слезу(следом за двумя первыми альбомами,один за другим,вышли еще нескольго:"Старшая сестра"(1992),"Баллады"(1993),"Измена"(1994).Так проживать песню,как это делала Буланова,могла не каждая даже умудренная опытом эстрадная звезда.Особенно слезливым у Булановой получился альбом "Странная встреча"(1994),записанный с композитором Ильей Духовным.Сына Сашу Татьяна родила 19 марта 1993 года.В 1992-1994 годах Татьяна Буланова и группа "Летний сад" переживали пик популярности.Их гастроли проходили при полных аншлагах.Например,на Дальнем Востоке в 93-м они выступали две недели,и каждый день залы буквально ломились от зрителей.В 1994 году Татьяна Буланова и группа "Летний сад"оказались лидерами по количеству проданных кассет-более 200 тысяч.В 1996 году Татьяна выпустила альбом "Обратный билет" музыку к которому написал композитор Максим Дунаевский,а стихи Илья Резник.А,в конце октября 1996 года состоялись первые сольные концерты Татьяны в Москве,с новой программой под названиеи "Мое русское сердце",музыку к новому альбому с одноименным названием написал модный композитор Олег Молчанов,и поет-песенник Аркадий Славоросов.Вне сцены Татьяна читает книжки,ездит на дачу,и конечно очень любит маму,папу,сына.(отец Татьяны скончался в конце февраля 1998 года после тяжелой болезни).Также Таня очень боится зубного врача,темноты и летать на сомолетах.После аншлагов с программой "Мое русское сердце" Таня ввыпустила еще два танцевальных альбома "Стерпится-слюбится"(1997) и "Женское сердце"(1998),после чего последовал рок-альбом "Стая"(1999) в тандеме Буланова-Молчанов.А,в 2000 году вышел супер танцевальный альбом Тани Булановой&DJЦветкоffа под названием "Мой сон".

_________________

[Торрент-статистика]
[Профиль]  [ЛС] 
Показать сообщения:    
Ответить на тему

Текущее время: Сегодня 21:26

Часовой пояс: GMT + 4



Вы не можете начинать темы
Вы не можете отвечать на сообщения
Вы не можете редактировать свои сообщения
Вы не можете удалять свои сообщения
Вы не можете голосовать в опросах
Вы не можете прикреплять файлы к сообщениям
Вы не можете скачивать файлы