[CD] Modern Talking - Les Essentiels - 2002, (Europop, Synth Pop, Disco), FLAC (tracks+.cue), lossless

Ответить на тему
 
Автор
Сообщение

Admiral ®

Пол:

Стаж: 7 лет 2 месяца

Сообщений: 606

Репутация: 146 [+] [-]

Пост 31-Мар-2018 19:23

[Цитировать] 

--Modern Talking - Les Essentiels-- Жанр: Europop, Synth Pop, Disco
Носитель: CD
Страна-производитель диска (релиза): Europe
Год издания: 2002
Издатель (лейбл): BMG France
Номер по каталогу: 74321 939302
Страна исполнителя (группы): Germany
Аудиокодек: FLAC (*.flac)
Тип рипа: tracks+.cue
Битрейт аудио: lossless
Продолжительность: 00:57:20
Источник (релизер): flac-lossless.
Наличие сканов в содержимом раздачи: да
Треклист:
01. Brother Louie
02. You're My Heart You're My Soul
03. Cheri Cheri Lady
04. You Can Win If You Want
05. Win The Race
06. Last Exit To Brooklyn
07. Atlantis Is Calling
08. Geronimo's Cadillac
09. Jet Airliner
10. Lady Lai
11. In 100 Years
12. With A Little Love
13. Let's Talk About Love
14. You And Me
15. You Are Not Alone

Отчёт EAC

Exact Audio Copy V1.0 beta 3 from 29. August 2011
EAC extraction logfile from 30. September 2015, 14:43
Modern Talking / Les Essentiels
Used drive : TSSTcorpCDDVDW SH-224DB Adapter: 0 ID: 1
Read mode : Secure
Utilize accurate stream : Yes
Defeat audio cache : Yes
Make use of C2 pointers : No
Read offset correction : 6
Overread into Lead-In and Lead-Out : No
Fill up missing offset samples with silence : Yes
Delete leading and trailing silent blocks : No
Null samples used in CRC calculations : Yes
Used interface : Installed external ASPI interface
Gap handling : Appended to previous track
Used output format : User Defined Encoder
Selected bitrate : 1024 kBit/s
Quality : High
Add ID3 tag : No
Command line compressor : D:\Program Files\Foobar2000\encoders\flac.exe
Additional command line options : -V -8 -T "Date=%year%" -T "Genre=%genre%" %source%
TOC of the extracted CD
Track | Start | Length | Start sector | End sector
---------------------------------------------------------
1 | 0:00.00 | 3:36.17 | 0 | 16216
2 | 3:36.17 | 3:49.40 | 16217 | 33431
3 | 7:25.57 | 3:46.10 | 33432 | 50391
4 | 11:11.67 | 3:47.48 | 50392 | 67464
5 | 14:59.40 | 3:36.14 | 67465 | 83678
6 | 18:35.54 | 3:16.43 | 83679 | 98421
7 | 21:52.22 | 3:48.60 | 98422 | 115581
8 | 25:41.07 | 3:17.18 | 115582 | 130374
9 | 28:58.25 | 4:20.60 | 130375 | 149934
10 | 33:19.10 | 4:57.24 | 149935 | 172233
11 | 38:16.34 | 3:56.46 | 172234 | 189979
12 | 42:13.05 | 3:33.57 | 189980 | 206011
13 | 45:46.62 | 3:53.33 | 206012 | 223519
14 | 49:40.20 | 4:00.52 | 223520 | 241571
15 | 53:40.72 | 3:39.15 | 241572 | 258011
Track 1
Filename D:\Desktop\Modern Talking - Les Essentiels (2002)\01. Brother Louie.wav
Pre-gap length 0:00:02.00
Peak level 98.8 %
Extraction speed 4.8 X
Track quality 100.0 %
Test CRC 17496E64
Copy CRC 17496E64
Accurately ripped (confidence 1) [486B4384] (AR v1)
Copy OK
Track 2
Filename D:\Desktop\Modern Talking - Les Essentiels (2002)\02. You're My Heart You're My Soul.wav
Peak level 96.9 %
Extraction speed 5.2 X
Track quality 100.0 %
Test CRC BD304A7D
Copy CRC BD304A7D
Accurately ripped (confidence 1) [016F7A0B] (AR v1)
Copy OK
Track 3
Filename D:\Desktop\Modern Talking - Les Essentiels (2002)\03. Cheri Cheri Lady.wav
Peak level 100.0 %
Extraction speed 5.6 X
Track quality 100.0 %
Test CRC 94C22648
Copy CRC 94C22648
Accurately ripped (confidence 1) [F18F1157] (AR v1)
Copy OK
Track 4
Filename D:\Desktop\Modern Talking - Les Essentiels (2002)\04. You Can Win If You Want.wav
Peak level 100.0 %
Extraction speed 5.9 X
Track quality 100.0 %
Test CRC 1F8072D5
Copy CRC 1F8072D5
Accurately ripped (confidence 1) [82726DE0] (AR v1)
Copy OK
Track 5
Filename D:\Desktop\Modern Talking - Les Essentiels (2002)\05. Win The Race.wav
Peak level 100.0 %
Extraction speed 6.2 X
Track quality 100.0 %
Test CRC D7B5DA2E
Copy CRC D7B5DA2E
Accurately ripped (confidence 1) [A41E83C8] (AR v1)
Copy OK
Track 6
Filename D:\Desktop\Modern Talking - Les Essentiels (2002)\06. Last Exit To Brooklyn.wav
Peak level 100.0 %
Extraction speed 6.3 X
Track quality 100.0 %
Test CRC 4BFE3526
Copy CRC 4BFE3526
Accurately ripped (confidence 1) [70D82676] (AR v1)
Copy OK
Track 7
Filename D:\Desktop\Modern Talking - Les Essentiels (2002)\07. Atlantis Is Calling.wav
Peak level 100.0 %
Extraction speed 6.8 X
Track quality 100.0 %
Test CRC B757BAB6
Copy CRC B757BAB6
Accurately ripped (confidence 1) [54C40908] (AR v1)
Copy OK
Track 8
Filename D:\Desktop\Modern Talking - Les Essentiels (2002)\08. Geronimo's Cadillac.wav
Peak level 100.0 %
Extraction speed 6.8 X
Track quality 100.0 %
Test CRC 18E04BF9
Copy CRC 18E04BF9
Accurately ripped (confidence 1) [A2BE4797] (AR v1)
Copy OK
Track 9
Filename D:\Desktop\Modern Talking - Les Essentiels (2002)\09. Jet Airliner.wav
Peak level 100.0 %
Extraction speed 7.5 X
Track quality 100.0 %
Test CRC 38A833B1
Copy CRC 38A833B1
Accurately ripped (confidence 1) [540C0A1C] (AR v1)
Copy OK
Track 10
Filename D:\Desktop\Modern Talking - Les Essentiels (2002)\10. Lady Lai.wav
Peak level 100.0 %
Extraction speed 7.9 X
Track quality 100.0 %
Test CRC 545E8780
Copy CRC 545E8780
Accurately ripped (confidence 1) [88D5977A] (AR v1)
Copy OK
Track 11
Filename D:\Desktop\Modern Talking - Les Essentiels (2002)\11. In 100 Years.wav
Peak level 100.0 %
Extraction speed 7.9 X
Track quality 100.0 %
Test CRC BA70F702
Copy CRC BA70F702
Accurately ripped (confidence 1) [54DBB8BF] (AR v1)
Copy OK
Track 12
Filename D:\Desktop\Modern Talking - Les Essentiels (2002)\12. With A Little Love.wav
Peak level 100.0 %
Extraction speed 6.3 X
Track quality 99.9 %
Test CRC 4A70927A
Copy CRC 4A70927A
Accurately ripped (confidence 1) [012BCBE4] (AR v1)
Copy OK
Track 13
Filename D:\Desktop\Modern Talking - Les Essentiels (2002)\13. Let's Talk About Love.wav
Peak level 100.0 %
Extraction speed 8.3 X
Track quality 100.0 %
Test CRC 9F0AC20B
Copy CRC 9F0AC20B
Accurately ripped (confidence 1) [DE749A3A] (AR v1)
Copy OK
Track 14
Filename D:\Desktop\Modern Talking - Les Essentiels (2002)\14. You And Me.wav
Peak level 100.0 %
Extraction speed 6.8 X
Track quality 99.9 %
Test CRC C34F8D3C
Copy CRC C34F8D3C
Accurately ripped (confidence 1) [227476FF] (AR v1)
Copy OK
Track 15
Filename D:\Desktop\Modern Talking - Les Essentiels (2002)\15. You Are Not Alone.wav
Peak level 100.0 %
Extraction speed 8.7 X
Track quality 100.0 %
Test CRC C22EE362
Copy CRC C22EE362
Accurately ripped (confidence 1) [20C02151] (AR v1)
Copy OK
All tracks accurately ripped
No errors occurred
End of status report
==== Log checksum 1FDA6E8487A7D8DAA8982816F42AA0F26ED7A341E432E54965492DAE9A2EBD61 ====

Содержание индексной карты (.CUE)

REM GENRE "Pop, Synthpop"
REM DATE 2002
REM DISCID BC0D700F
REM COMMENT "ExactAudioCopy v1.0b3"
PERFORMER "Modern Talking"
TITLE "Les Essentiels"
FILE "01. Brother Louie.wav" WAVE
TRACK 01 AUDIO
TITLE "Brother Louie"
PERFORMER "Modern Talking"
INDEX 01 00:00:00
FILE "02. You're My Heart You're My Soul.wav" WAVE
TRACK 02 AUDIO
TITLE "You're My Heart You're My Soul"
PERFORMER "Modern Talking"
INDEX 01 00:00:00
FILE "03. Cheri Cheri Lady.wav" WAVE
TRACK 03 AUDIO
TITLE "Cheri Cheri Lady"
PERFORMER "Modern Talking"
INDEX 01 00:00:00
FILE "04. You Can Win If You Want.wav" WAVE
TRACK 04 AUDIO
TITLE "You Can Win If You Want"
PERFORMER "Modern Talking"
INDEX 01 00:00:00
FILE "05. Win The Race.wav" WAVE
TRACK 05 AUDIO
TITLE "Win The Race"
PERFORMER "Modern Talking"
INDEX 01 00:00:00
FILE "06. Last Exit To Brooklyn.wav" WAVE
TRACK 06 AUDIO
TITLE "Last Exit To Brooklyn"
PERFORMER "Modern Talking"
INDEX 01 00:00:00
FILE "07. Atlantis Is Calling.wav" WAVE
TRACK 07 AUDIO
TITLE "Atlantis Is Calling"
PERFORMER "Modern Talking"
INDEX 01 00:00:00
FILE "08. Geronimo's Cadillac.wav" WAVE
TRACK 08 AUDIO
TITLE "Geronimo's Cadillac"
PERFORMER "Modern Talking"
INDEX 01 00:00:00
FILE "09. Jet Airliner.wav" WAVE
TRACK 09 AUDIO
TITLE "Jet Airliner"
PERFORMER "Modern Talking"
INDEX 01 00:00:00
FILE "10. Lady Lai.wav" WAVE
TRACK 10 AUDIO
TITLE "Lady Lai"
PERFORMER "Modern Talking"
INDEX 01 00:00:00
FILE "11. In 100 Years.wav" WAVE
TRACK 11 AUDIO
TITLE "In 100 Years"
PERFORMER "Modern Talking"
INDEX 01 00:00:00
FILE "12. With A Little Love.wav" WAVE
TRACK 12 AUDIO
TITLE "With A Little Love"
PERFORMER "Modern Talking"
INDEX 01 00:00:00
FILE "13. Let's Talk About Love.wav" WAVE
TRACK 13 AUDIO
TITLE "Let's Talk About Love"
PERFORMER "Modern Talking"
INDEX 01 00:00:00
FILE "14. You And Me.wav" WAVE
TRACK 14 AUDIO
TITLE "You And Me"
PERFORMER "Modern Talking"
INDEX 01 00:00:00
FILE "15. You Are Not Alone.wav" WAVE
TRACK 15 AUDIO
TITLE "You Are Not Alone"
PERFORMER "Modern Talking"
INDEX 01 00:00:00
https://www.discogs.com/Modern-Talking-Les-Essentiels/release/2355629
[Торрент-статистика]
[Профиль]  [ЛС] 
Показать сообщения:    
Ответить на тему

Текущее время: Сегодня 13:30

Часовой пояс: GMT + 4



Вы не можете начинать темы
Вы не можете отвечать на сообщения
Вы не можете редактировать свои сообщения
Вы не можете удалять свои сообщения
Вы не можете голосовать в опросах
Вы не можете прикреплять файлы к сообщениям
Вы не можете скачивать файлы