[CD] Ricchi E Poveri - Voulez Vous Danser - 1983(2010), (Pop,Synth Pop,Disco), FLAC (tracks+.cue), lossless

Ответить на тему
 
Автор
Сообщение

Admiral ®

Пол:

Стаж: 7 лет 2 месяца

Сообщений: 606

Репутация: 146 [+] [-]

Пост 31-Мар-2018 19:17

[Цитировать] 

--Ricchi E Poveri - Voulez Vous Danser-- Жанр: Pop,Synth Pop,Disco
Носитель: CD
Страна-производитель диска (релиза): Russia
Год издания: 1983(2010)
Издатель (лейбл): Baby Records
Номер по каталогу: BRCD 56057
Страна исполнителя (группы): Italia
Аудиокодек: FLAC (*.flac)
Тип рипа: tracks+.cue
Битрейт аудио: lossless
Продолжительность: 00:36:20
Источник (релизер): flac-lossless.
Наличие сканов в содержимом раздачи: да
Треклист:
01. Voulez Vous Dancer
02. Hasta La Vista
03. Acapulco
04. Sei La Sola Che Amo
05. Dan Dan
06. Cosa Sei
07. Oao Italy, Oao Amore
08. E Io Mi Sono Innamorato
09. Un Altro Lui Un' Altra Lei
10. Vento Caldo

Лог создания рипа

Exact Audio Copy V1.0 beta 3 from 29. August 2011
EAC extraction logfile from 17. August 2016, 12:45
Ricchi & Poveri / Voulez Vous Dancer
Used drive : TSSTcorpCDDVDW SH-224DB Adapter: 0 ID: 1
Read mode : Secure
Utilize accurate stream : Yes
Defeat audio cache : Yes
Make use of C2 pointers : No
Read offset correction : 6
Overread into Lead-In and Lead-Out : No
Fill up missing offset samples with silence : Yes
Delete leading and trailing silent blocks : No
Null samples used in CRC calculations : Yes
Used interface : Installed external ASPI interface
Gap handling : Appended to previous track
Used output format : User Defined Encoder
Selected bitrate : 1024 kBit/s
Quality : High
Add ID3 tag : No
Command line compressor : D:\Program Files\Exact Audio Copy\FLAC\FLAC.EXE
Additional command line options : -V -8 -T "Genre=%genre%" -T "Artist=%artist%" -T "Title=%title%" -T "Album=%albumtitle%" -T "Date=%year%" -T "Tracknumber=%tracknr%" -T "Comment=%comment%" %source%
TOC of the extracted CD
Track | Start | Length | Start sector | End sector
---------------------------------------------------------
1 | 0:00.00 | 3:47.55 | 0 | 17079
2 | 3:47.55 | 5:45.11 | 17080 | 42965
3 | 9:32.66 | 3:46.24 | 42966 | 59939
4 | 13:19.15 | 3:07.11 | 59940 | 73975
5 | 16:26.26 | 3:19.54 | 73976 | 88954
6 | 19:46.05 | 3:20.59 | 88955 | 104013
7 | 23:06.64 | 3:04.18 | 104014 | 117831
8 | 26:11.07 | 3:35.14 | 117832 | 133970
9 | 29:46.21 | 2:57.56 | 133971 | 147301
10 | 32:44.02 | 3:36.51 | 147302 | 163552
Track 1
Filename D:\Desktop\Ricchi & Poveri - Voulez Vous Danser (2010)\01. Voulez Vous Dancer.wav
Pre-gap length 0:00:02.00
Peak level 99.0 %
Extraction speed 1.7 X
Track quality 99.9 %
Test CRC 0BD8CA4B
Copy CRC 0BD8CA4B
Track not present in AccurateRip database
Copy OK
Track 2
Filename D:\Desktop\Ricchi & Poveri - Voulez Vous Danser (2010)\02. Hasta La Vista.wav
Peak level 99.0 %
Extraction speed 2.3 X
Track quality 100.0 %
Test CRC FDB88960
Copy CRC FDB88960
Track not present in AccurateRip database
Copy OK
Track 3
Filename D:\Desktop\Ricchi & Poveri - Voulez Vous Danser (2010)\03. Acapulco.wav
Peak level 99.0 %
Extraction speed 2.3 X
Track quality 100.0 %
Test CRC 35609B49
Copy CRC 35609B49
Track not present in AccurateRip database
Copy OK
Track 4
Filename D:\Desktop\Ricchi & Poveri - Voulez Vous Danser (2010)\04. Sei La Sola Che Amo.wav
Peak level 99.0 %
Extraction speed 2.3 X
Track quality 100.0 %
Test CRC 0BF5BF9D
Copy CRC 0BF5BF9D
Track not present in AccurateRip database
Copy OK
Track 5
Filename D:\Desktop\Ricchi & Poveri - Voulez Vous Danser (2010)\05. Dan Dan.wav
Peak level 99.1 %
Extraction speed 2.5 X
Track quality 100.0 %
Test CRC 35C14985
Copy CRC 35C14985
Track not present in AccurateRip database
Copy OK
Track 6
Filename D:\Desktop\Ricchi & Poveri - Voulez Vous Danser (2010)\06. Cosa Sei.wav
Peak level 99.0 %
Extraction speed 2.6 X
Track quality 100.0 %
Test CRC F89389AA
Copy CRC F89389AA
Track not present in AccurateRip database
Copy OK
Track 7
Filename D:\Desktop\Ricchi & Poveri - Voulez Vous Danser (2010)\07. Oao Italy, Oao Amore.wav
Peak level 100.0 %
Extraction speed 2.0 X
Track quality 99.9 %
Test CRC 19F7C08E
Copy CRC 19F7C08E
Track not present in AccurateRip database
Copy OK
Track 8
Filename D:\Desktop\Ricchi & Poveri - Voulez Vous Danser (2010)\08. E Io Mi Sono Innamorato.wav
Peak level 99.0 %
Extraction speed 2.8 X
Track quality 100.0 %
Test CRC 36AC42D7
Copy CRC 36AC42D7
Track not present in AccurateRip database
Copy OK
Track 9
Filename D:\Desktop\Ricchi & Poveri - Voulez Vous Danser (2010)\09. Un Altro Lui Un' Altra Lei.wav
Peak level 98.9 %
Extraction speed 2.8 X
Track quality 100.0 %
Test CRC BE319E1F
Copy CRC BE319E1F
Track not present in AccurateRip database
Copy OK
Track 10
Filename D:\Desktop\Ricchi & Poveri - Voulez Vous Danser (2010)\10. Vento Caldo.wav
Peak level 100.0 %
Extraction speed 3.0 X
Track quality 100.0 %
Test CRC AAE55F8D
Copy CRC AAE55F8D
Track not present in AccurateRip database
Copy OK
None of the tracks are present in the AccurateRip database
No errors occurred
End of status report
==== Log checksum FB5A845F7467A963EDE9D8B3AACF27A29F7C893EDD59387D16BC3D2E2445B71F ====

Содержание индексной карты (.CUE)

REM GENRE Pop
REM DATE 2010
REM DISCID A508840A
REM COMMENT "ExactAudioCopy v1.0b3"
PERFORMER "Ricchi & Poveri"
TITLE "Voulez Vous Dancer"
FILE "01. Voulez Vous Dancer.wav" WAVE
TRACK 01 AUDIO
TITLE "Voulez Vous Dancer"
PERFORMER "Ricchi & Poveri"
FLAGS DCP
INDEX 01 00:00:00
FILE "02. Hasta La Vista.wav" WAVE
TRACK 02 AUDIO
TITLE "Hasta La Vista"
PERFORMER "Ricchi & Poveri"
FLAGS DCP
INDEX 01 00:00:00
FILE "03. Acapulco.wav" WAVE
TRACK 03 AUDIO
TITLE "Acapulco"
PERFORMER "Ricchi & Poveri"
FLAGS DCP
INDEX 01 00:00:00
FILE "04. Sei La Sola Che Amo.wav" WAVE
TRACK 04 AUDIO
TITLE "Sei La Sola Che Amo"
PERFORMER "Ricchi & Poveri"
FLAGS DCP
INDEX 01 00:00:00
FILE "05. Dan Dan.wav" WAVE
TRACK 05 AUDIO
TITLE "Dan Dan"
PERFORMER "Ricchi & Poveri"
FLAGS DCP
INDEX 01 00:00:00
FILE "06. Cosa Sei.wav" WAVE
TRACK 06 AUDIO
TITLE "Cosa Sei"
PERFORMER "Ricchi & Poveri"
FLAGS DCP
INDEX 01 00:00:00
FILE "07. Oao Italy, Oao Amore.wav" WAVE
TRACK 07 AUDIO
TITLE "Oao Italy, Oao Amore"
PERFORMER "Ricchi & Poveri"
FLAGS DCP
INDEX 01 00:00:00
FILE "08. E Io Mi Sono Innamorato.wav" WAVE
TRACK 08 AUDIO
TITLE "E Io Mi Sono Innamorato"
PERFORMER "Ricchi & Poveri"
FLAGS DCP
INDEX 01 00:00:00
FILE "09. Un Altro Lui Un' Altra Lei.wav" WAVE
TRACK 09 AUDIO
TITLE "Un Altro Lui Un' Altra Lei"
PERFORMER "Ricchi & Poveri"
FLAGS DCP
INDEX 01 00:00:00
FILE "10. Vento Caldo.wav" WAVE
TRACK 10 AUDIO
TITLE "Vento Caldo"
PERFORMER "Ricchi & Poveri"
FLAGS DCP
INDEX 01 00:00:00
https://www.discogs.com/Ricchi-E-Poveri-Voulez-Vous.../release/3266564
[Торрент-статистика]
[Профиль]  [ЛС] 
Показать сообщения:    
Ответить на тему

Текущее время: Сегодня 21:31

Часовой пояс: GMT + 4



Вы не можете начинать темы
Вы не можете отвечать на сообщения
Вы не можете редактировать свои сообщения
Вы не можете удалять свои сообщения
Вы не можете голосовать в опросах
Вы не можете прикреплять файлы к сообщениям
Вы не можете скачивать файлы