[CD] C.C. Catch - Classics - 1989, (Disco, Eurodance), FLAC (image+.cue), lossless

Ответить на тему
 
Автор
Сообщение

Admiral ®

Пол:

Стаж: 7 лет 2 месяца

Сообщений: 606

Репутация: 146 [+] [-]

Пост 31-Мар-2018 13:24

[Цитировать] 

--C.C. Catch - Classics -- Жанр: Disco, Eurodance
Носитель: CD
Страна-производитель диска (релиза): Germany
Год издания: 1989
Издатель (лейбл): Hansa, BMG Ariola
Номер по каталогу: 260 212
Аудиокодек: FLAC (*.flac)
Тип рипа: image+.cue
Битрейт аудио: lossless
Продолжительность: 01:06:02
Источник (релизер): Собственный диск
Наличие сканов в содержимом раздачи: да
Треклист:

01. Back Seat Of You Cadillac (5:22)
02. Are You Man Enougth (6:07)
03. Good Guys Only Win In Movies (5:45)
04. MidNight Gambler (3:34)
05. Baby I Need You Love (3:05)
06. House Of Mystic Lights (3:06)
07. Strangers By Night (3:40)
08. Heartbreack Hotel (4:56)
09. Soul Surviror (3:26)
10. Heaven And Hell (5:14)
11. Nothing But Heartache (3:04)
12. Jump In My Car (3:52)
13. Heartbreat City (3:40)
14. I Can Lose My Heart Tonight (3:51)
15. Cause you Are Young (3:30)
16. Summer Kissies (3:51)

Отчёт EAC

Exact Audio Copy V1.0 beta 3 from 29. August 2011
Отчёт EAC об извлечении, выполненном 16. декабря 2012, 18:06
C.C. Catch / Classics
Дисковод: ATAPI iHAP122 W Adapter: 0 ID: 1
Режим чтения : Достоверность
Использование точного потока : Да
Отключение кэша аудио : Да
Использование указателей C2 : Нет
Коррекция смещения при чтении : 6
Способность читать области Lead-in и Lead-out : Нет
Заполнение пропущенных сэмплов тишиной : Да
Удаление блоков с тишиной в начале и конце : Нет
При вычислениях CRC использовались нулевые сэмплы : Да
Интерфейс : Установленный внешний ASPI-интерфейс
Выходной формат : Пользовательский кодировщик
Выбранный битрейт : 768 kBit/s
Качество : Высокий
Добавление ID3-тега : Нет
Утилита сжатия : C:\Program Files\FLAC\flac.exe
Дополнительные параметры : -6 -V -T "ARTIST=%artist%" -T "TITLE=%title%" -T "ALBUM=%albumtitle%" -T "DATE=%year%" -T "TRACKNUMBER=%tracknr%" -T "GENRE=%genre%" -T "COMMENT=%comment%" -T "BAND=%albuminterpret%" -T "ALBUMARTIST=%albuminterpret%" -T "COMPOSER=%composer%" %haslyrics%--tag-from-file=LYRICS="%lyricsfile%"%haslyrics% -T "DISCNUMBER=%cdnumber%" -T "TOTALDISCS=%totalcds%" -T "TOTALTRACKS=%numtracks%" %hascover%--picture="%coverfile%"%hascover% %source% -o %dest%
TOC извлечённого CD
Трек | Старт | Длительность | Начальный сектор | Конечный сектор
---------------------------------------------------------------------
1 | 0:00.00 | 5:21.53 | 0 | 24127
2 | 5:21.53 | 6:07.00 | 24128 | 51652
3 | 11:28.53 | 5:44.52 | 51653 | 77504
4 | 17:13.30 | 3:34.23 | 77505 | 93577
5 | 20:47.53 | 3:04.40 | 93578 | 107417
6 | 23:52.18 | 3:05.55 | 107418 | 121347
7 | 26:57.73 | 3:40.20 | 121348 | 137867
8 | 30:38.18 | 4:56.32 | 137868 | 160099
9 | 35:34.50 | 3:25.48 | 160100 | 175522
10 | 39:00.23 | 5:14.07 | 175523 | 199079
11 | 44:14.30 | 3:03.58 | 199080 | 212862
12 | 47:18.13 | 3:51.50 | 212863 | 230237
13 | 51:09.63 | 3:39.47 | 230238 | 246709
14 | 54:49.35 | 3:50.63 | 246710 | 264022
15 | 58:40.23 | 3:30.15 | 264023 | 279787
16 | 62:10.38 | 3:51.00 | 279788 | 297112
Характеристики диапазона извлечения и сообщения об ошибках
Выбранный диапазон
Имя файла D:\music\Lossless-flac_Rip by moote\C.C. Catch\C.C. Catch - Classics (1989)\C.C. Catch - Classics.wav
Пиковый уровень 97.4 %
Скорость извлечения 3.6 X
Качество диапазона 100.0 %
CRC теста C1BCAEB4
CRC копии C1BCAEB4
Копирование... OK
Ошибок не произошло
AccurateRip: сводка
Трек 1 отсутствует в базе данных
Трек 2 отсутствует в базе данных
Трек 3 отсутствует в базе данных
Трек 4 отсутствует в базе данных
Трек 5 отсутствует в базе данных
Трек 6 отсутствует в базе данных
Трек 7 отсутствует в базе данных
Трек 8 отсутствует в базе данных
Трек 9 отсутствует в базе данных
Трек 10 отсутствует в базе данных
Трек 11 отсутствует в базе данных
Трек 12 отсутствует в базе данных
Трек 13 отсутствует в базе данных
Трек 14 отсутствует в базе данных
Трек 15 отсутствует в базе данных
Трек 16 отсутствует в базе данных
Ни одного трека нет в базе AccurateRip
Конец отчёта
---- CUETools DB Plugin V2.1.4
[CTDB TOCID: OaqcqXmHw3z8XFTJGUEjU2bu6jA-] disk not present in database
Submit result: OaqcqXmHw3z8XFTJGUEjU2bu6jA- has been uploaded
==== Контрольная сумма отчёта 22273B7EDE08F10F5335246739A75C796E3553AC52A6AFD8F5CEF54658B368C2 ====

Содержание индексной карты (.CUE)

REM GENRE Disco
REM DATE 1989
REM DISCID C90F7910
REM COMMENT "ExactAudioCopy v1.0b3"
PERFORMER "C.C. Catch"
TITLE "Classics"
FILE "C.C. Catch - Classics.flac" WAVE
TRACK 01 AUDIO
TITLE "Back Seat Of You Cadillac"
PERFORMER "C.C. Catch"
INDEX 01 00:00:00
TRACK 02 AUDIO
TITLE "Are You Man Enougth"
PERFORMER "C.C. Catch"
INDEX 00 05:20:13
INDEX 01 05:21:53
TRACK 03 AUDIO
TITLE "Good Guys Only Win In Movies"
PERFORMER "C.C. Catch"
INDEX 00 11:26:63
INDEX 01 11:28:53
TRACK 04 AUDIO
TITLE "MidNight Gambler"
PERFORMER "C.C. Catch"
INDEX 00 17:11:68
INDEX 01 17:13:30
TRACK 05 AUDIO
TITLE "Baby I Need You Love"
PERFORMER "C.C. Catch"
INDEX 00 20:46:00
INDEX 01 20:47:53
TRACK 06 AUDIO
TITLE "House Of Mystic Lights"
PERFORMER "C.C. Catch"
INDEX 00 23:50:63
INDEX 01 23:52:18
TRACK 07 AUDIO
TITLE "Strangers By Night"
PERFORMER "C.C. Catch"
INDEX 00 26:56:13
INDEX 01 26:57:73
TRACK 08 AUDIO
TITLE "Heartbreack Hotel"
PERFORMER "C.C. Catch"
INDEX 00 30:36:38
INDEX 01 30:38:18
TRACK 09 AUDIO
TITLE "Soul Surviror"
PERFORMER "C.C. Catch"
INDEX 00 35:33:10
INDEX 01 35:34:50
TRACK 10 AUDIO
TITLE "Heaven And Hell"
PERFORMER "C.C. Catch"
INDEX 00 38:58:45
INDEX 01 39:00:23
TRACK 11 AUDIO
TITLE "Nothing But Heartache"
PERFORMER "C.C. Catch"
INDEX 00 44:12:63
INDEX 01 44:14:30
TRACK 12 AUDIO
TITLE "Jump In My Car"
PERFORMER "C.C. Catch"
INDEX 00 47:16:50
INDEX 01 47:18:13
TRACK 13 AUDIO
TITLE "Heartbreat City"
PERFORMER "C.C. Catch"
INDEX 00 51:08:13
INDEX 01 51:09:63
TRACK 14 AUDIO
TITLE "I Can Lose My Heart Tonight"
PERFORMER "C.C. Catch"
INDEX 00 54:47:50
INDEX 01 54:49:35
TRACK 15 AUDIO
TITLE "Cause you Are Young"
PERFORMER "C.C. Catch"
INDEX 00 58:38:63
INDEX 01 58:40:23
TRACK 16 AUDIO
TITLE "Summer Kissies"
PERFORMER "C.C. Catch"
INDEX 00 62:08:65
INDEX 01 62:10:38

http://www.discogs.com/CC-Catch-Classics/release/1485033
[Торрент-статистика]
[Профиль]  [ЛС] 
Показать сообщения:    
Ответить на тему

Текущее время: Сегодня 00:16

Часовой пояс: GMT + 4



Вы не можете начинать темы
Вы не можете отвечать на сообщения
Вы не можете редактировать свои сообщения
Вы не можете удалять свои сообщения
Вы не можете голосовать в опросах
Вы не можете прикреплять файлы к сообщениям
Вы не можете скачивать файлы