Lipps, Inc. - Funkyworld - The Best Of - 1992, (Disco), FLAC (image+.cue), lossless

Ответить на тему
 
Автор
Сообщение

Admiral ®

Пол:

Стаж: 7 лет 2 месяца

Сообщений: 606

Репутация: 146 [+] [-]

Пост 25-Мар-2018 22:52

[Цитировать] 

--Lipps, Inc. - Funkyworld - The Best Of-- Жанр: Disco
Страна-производитель диска: USA
Год издания диска: 1992
Издатель (лейбл): Casablanca - PolyGram
Номер по каталогу: 314 512 969-2
Аудио кодек: FLAC (*.flac)
Тип рипа: image+.cue
Битрейт аудио: lossless
Продолжительность: 01:14:22
Источник (релизер): собственный рип
Наличие сканов в содержимом раздачи: да
Трэклист:
01. Funkytown 7:49
02. All Night Dancing 8:20
03. Rock It 5:41
04. How Long 5:37
05. Tight Pair 8:33
06. Jazzy 3:58
07. Designer Music 5:43
08. Hold Me Down 5:27
09. Addicted To The Night 6:48
10. Choir Practice 5:57
11. Does Anybody Know Me 4:22
12. Hit The Deck 6:07

Доп. информация:

Information

Back

Отчет EAC

Exact Audio Copy V0.99 prebeta 5 from 4. May 2009
Отчёт EAC об извлечении, выполненном 9. апреля 2010, 10:21
Lipps, Inc. / Funkyworld - The Best Of
Дисковод: PIONEER DVD-RW DVR-107D Adapter: 3 ID: 0
Режим чтения : Достоверность
Использование точного потока : Да
Отключение кэша аудио : Да
Использование указателей C2 : Нет
Коррекция смещения при чтении : 48
Способность читать области Lead-in и Lead-out : Нет
Заполнение пропущенных сэмплов тишиной : Да
Удаление блоков с тишиной в начале и конце : Нет
При вычислениях CRC использовались нулевые сэмплы : Да
Интерфейс : Встроенный Win32-интерфейс для Win NT/2000
Выходной формат : Внутренние WAV-операции
Формат сэмплов : 44.100 Гц; 16 бит; стерео
TOC извлечённого CD
Трек | Старт | Длительность | Начальный сектор | Конечный сектор
---------------------------------------------------------------------
1 | 0:00.32 | 7:49.18 | 32 | 35224
2 | 7:49.50 | 8:20.10 | 35225 | 72734
3 | 16:09.60 | 5:41.32 | 72735 | 98341
4 | 21:51.17 | 5:37.00 | 98342 | 123616
5 | 27:28.17 | 8:32.73 | 123617 | 162089
6 | 36:01.15 | 3:58.00 | 162090 | 179939
7 | 39:59.15 | 5:42.62 | 179940 | 205651
8 | 45:42.02 | 5:26.60 | 205652 | 230161
9 | 51:08.62 | 6:48.25 | 230162 | 260786
10 | 57:57.12 | 5:56.48 | 260787 | 287534
11 | 63:53.60 | 4:21.70 | 287535 | 307179
12 | 68:15.55 | 6:07.30 | 307180 | 334734
Характеристики диапазона извлечения и сообщения об ошибках
Выбранный диапазон
Имя файла H:\All\Music\Lipps, Inc. - Funkyworld - The Best Of\Lipps, Inc. - Funkyworld - The Best Of.wav
Пиковый уровень 100.0 %
Качество диапазона 100.0 %
CRC теста C6CBB020
CRC копии C6CBB020
Копирование... OK
Ошибок не произошло
AccurateRip: сводка
Трек 1 точное извлечение (доверие 3) [EF887CFF]
Трек 2 точное извлечение (доверие 2) [BC472E46]
Трек 3 точное извлечение (доверие 2) [E26D8295]
Трек 4 точное извлечение (доверие 2) [5225CD71]
Трек 5 точное извлечение (доверие 2) [42E9D598]
Трек 6 точное извлечение (доверие 2) [34A4447A]
Трек 7 точное извлечение (доверие 2) [10C7B5D9]
Трек 8 точное извлечение (доверие 2) [110B21DC]
Трек 9 точное извлечение (доверие 2) [2371C105]
Трек 10 точное извлечение (доверие 2) [267912EF]
Трек 11 точное извлечение (доверие 2) [8D23B9EA]
Трек 12 точное извлечение (доверие 2) [911DE9BB]
Все треки извлечены точно
Конец отчёта
[Торрент-статистика]
[Профиль]  [ЛС] 
Показать сообщения:    
Ответить на тему

Текущее время: Сегодня 15:15

Часовой пояс: GMT + 4



Вы не можете начинать темы
Вы не можете отвечать на сообщения
Вы не можете редактировать свои сообщения
Вы не можете удалять свои сообщения
Вы не можете голосовать в опросах
Вы не можете прикреплять файлы к сообщениям
Вы не можете скачивать файлы