VA - New Syndicate - Part II (ESonCD) - 2003, (Disco), APE (image+.cue), lossless

Ответить на тему
 
Автор
Сообщение

Admiral ®

Пол:

Стаж: 7 лет 2 месяца

Сообщений: 606

Репутация: 146 [+] [-]

Пост 24-Апр-2017 13:34

[Цитировать] 

--Various Artists - New Syndicate - Part II-- Жанр: Disco
Год выпуска диска: 2003
Производитель диска: Russia (ESonCD - ESCD 200302)
Аудио кодек: APE
Тип рипа: image+.cue
Битрейт аудио: lossless
Продолжительность: 01:03:16
Трэклист:
01. Bisquit - Zoo Zoo 7:05
02. Veronica Unlimited - New York City 3:39
03. Ken Wilbard - Sing, Sing A Song 3:40
04. Rettore - Kamikaze Rock'n'Roll Suicide 4:29
05. Bertin Osborne - Siempre Asi 3:01
06. Lipps, Inc. - Funkytown 7:43
07. Coconuts - Don't Take My Coconuts 3:35
08. Cherry Laine - Danny's Disco 3:58
09. Peter Jacques Band - Exotical Ly 5:54
10. Pappy 'Ion - 1001 Nights 3:54
11. Doris D. & The Pins - Jamaica 2:45
12. Chilly - Oh, I Love You 3:07
13. Apple Jam - All My Loving 3:51
14. Trix - Show Down 2:56
15. Emly Starr Explosion - Do Svidaanja 3:33

Back

Отчет EAC

Exact Audio Copy V0.99 prebeta 5 from 4. May 2009
Отчёт EAC об извлечении, выполненном 6. сентября 2009, 12:07
Various / New Syndicate Part II
Дисковод: Optiarc DVD RW AD-5200A Adapter: 0 ID: 0
Режим чтения : Достоверность
Использование точного потока : Да
Отключение кэша аудио : Да
Использование указателей C2 : Нет
Коррекция смещения при чтении : 48
Способность читать области Lead-in и Lead-out : Нет
Заполнение пропущенных сэмплов тишиной : Да
Удаление блоков с тишиной в начале и конце : Нет
При вычислениях CRC использовались нулевые сэмплы : Да
Интерфейс : Установленный внешний ASPI-интерфейс
Выходной формат : Внутренние WAV-операции
Формат сэмплов : 44.100 Гц; 16 бит; стерео
TOC извлечённого CD
Трек | Старт | Длительность | Начальный сектор | Конечный сектор
---------------------------------------------------------------------
1 | 0:00.00 | 7:05.31 | 0 | 31905
2 | 7:05.31 | 3:39.38 | 31906 | 48368
3 | 10:44.69 | 3:40.14 | 48369 | 64882
4 | 14:25.08 | 4:29.63 | 64883 | 85120
5 | 18:54.71 | 3:01.49 | 85121 | 98744
6 | 21:56.45 | 7:43.41 | 98745 | 133510
7 | 29:40.11 | 3:35.10 | 133511 | 149645
8 | 33:15.21 | 3:58.56 | 149646 | 167551
9 | 37:14.02 | 5:54.65 | 167552 | 194166
10 | 43:08.67 | 3:54.18 | 194167 | 211734
11 | 47:03.10 | 2:45.01 | 211735 | 224110
12 | 49:48.11 | 3:07.26 | 224111 | 238161
13 | 52:55.37 | 3:51.71 | 238162 | 255557
14 | 56:47.33 | 2:56.19 | 255558 | 268776
15 | 59:43.52 | 3:33.52 | 268777 | 284803
Характеристики диапазона извлечения и сообщения об ошибках
Выбранный диапазон
Имя файла E:\Various - New Syndicate Part II\Various - New Syndicate Part II.wav
Пиковый уровень 100.0 %
Качество диапазона 99.9 %
CRC теста B127FD39
CRC копии B127FD39
Копирование... OK
Ошибок не произошло
AccurateRip: сводка
Трек 1 нет в базе данных
Трек 2 нет в базе данных
Трек 3 нет в базе данных
Трек 4 нет в базе данных
Трек 5 нет в базе данных
Трек 6 нет в базе данных
Трек 7 нет в базе данных
Трек 8 нет в базе данных
Трек 9 нет в базе данных
Трек 10 нет в базе данных
Трек 11 нет в базе данных
Трек 12 нет в базе данных
Трек 13 нет в базе данных
Трек 14 нет в базе данных
Трек 15 нет в базе данных
Ни одного трека нет в базе AccurateRip
Конец отчёта
[Торрент-статистика]
[Профиль]  [ЛС] 
Показать сообщения:    
Ответить на тему

Текущее время: Сегодня 07:43

Часовой пояс: GMT + 4



Вы не можете начинать темы
Вы не можете отвечать на сообщения
Вы не можете редактировать свои сообщения
Вы не можете удалять свои сообщения
Вы не можете голосовать в опросах
Вы не можете прикреплять файлы к сообщениям
Вы не можете скачивать файлы