[CD] Radiorama - Desires and Vampires - 1988, (Italo-Disco), FLAC (tracks+.cue), lossless

Ответить на тему
 
Автор
Сообщение

Admiral ®

Пол:

Стаж: 7 лет 2 месяца

Сообщений: 606

Репутация: 146 [+] [-]

Пост 15-Июл-2015 22:43

[Цитировать] 

--Radiorama - Desires and Vampires-- Жанр: Italo-Disco
Носитель: CD
Страна-производитель диска (релиза): Germany
Год издания: 1988
Издатель (лейбл): Ariola Express
Номер по каталогу: 297 078
Аудиокодек: FLAC (*.flac)
Тип рипа: tracks+.cue
Битрейт аудио: lossless
Продолжительность: 00:42:28
Источник (релизер): Собственный диск
Наличие сканов в содержимом раздачи: да
Треклист:

01. Desire
02. Flight Of Fantasy
03. Hey Hey
04. Wacha Gonna Do
05. Aliens
06. Vampires
07. Chance To Desire
08. Friend
09. Remix Of Desire

Отчёт EAC

Exact Audio Copy V1.0 beta 3 from 29. August 2011
EAC extraction logfile from 25. December 2014, 16:09
Radiorama / Desires And Vampires
Used drive : HL-DT-STDVDRAM GSA-T10N Adapter: 0 ID: 0
Read mode : Secure
Utilize accurate stream : Yes
Defeat audio cache : Yes
Make use of C2 pointers : No
Read offset correction : 667
Overread into Lead-In and Lead-Out : No
Fill up missing offset samples with silence : Yes
Delete leading and trailing silent blocks : No
Null samples used in CRC calculations : Yes
Used interface : Installed external ASPI interface
Gap handling : Appended to previous track
Used output format : User Defined Encoder
Selected bitrate : 1024 kBit/s
Quality : High
Add ID3 tag : No
Command line compressor : D:\Program Files\Foobar2000\encoders\flac.exe
Additional command line options : -V -8 -T "Date=%year%" -T "Genre=%genre%" %source%
TOC of the extracted CD
Track | Start | Length | Start sector | End sector
---------------------------------------------------------
1 | 0:00.00 | 3:52.23 | 0 | 17422
2 | 3:52.23 | 3:58.57 | 17423 | 35329
3 | 7:51.05 | 4:35.63 | 35330 | 56017
4 | 12:26.68 | 5:31.22 | 56018 | 80864
5 | 17:58.15 | 4:12.33 | 80865 | 99797
6 | 22:10.48 | 6:13.35 | 99798 | 127807
7 | 28:24.08 | 4:08.12 | 127808 | 146419
8 | 32:32.20 | 3:59.18 | 146420 | 164362
9 | 36:31.38 | 5:55.42 | 164363 | 191029
Track 1
Filename D:\Desktop - копия\Radiorama - Desires And Vampires (1988)\01. Desire.wav
Pre-gap length 0:00:02.00
Peak level 91.1 %
Extraction speed 1.9 X
Track quality 100.0 %
Test CRC A13556AD
Copy CRC A13556AD
Accurately ripped (confidence 7) [45D6FCE1] (AR v2)
Copy OK
Track 2
Filename D:\Desktop - копия\Radiorama - Desires And Vampires (1988)\02. Flight Of Fantasy.wav
Pre-gap length 0:00:01.25
Peak level 93.1 %
Extraction speed 2.2 X
Track quality 100.0 %
Test CRC D6C98561
Copy CRC D6C98561
Accurately ripped (confidence 6) [22EFB1F7] (AR v2)
Copy OK
Track 3
Filename D:\Desktop - копия\Radiorama - Desires And Vampires (1988)\03. Hey Hey.wav
Pre-gap length 0:00:01.27
Peak level 77.8 %
Extraction speed 2.3 X
Track quality 100.0 %
Test CRC FDFC6CCE
Copy CRC FDFC6CCE
Accurately ripped (confidence 6) [AF8E30CF] (AR v2)
Copy OK
Track 4
Filename D:\Desktop - копия\Radiorama - Desires And Vampires (1988)\04. Wacha Gonna Do.wav
Pre-gap length 0:00:01.25
Peak level 86.4 %
Extraction speed 2.6 X
Track quality 100.0 %
Test CRC BD9C2349
Copy CRC BD9C2349
Accurately ripped (confidence 6) [A9606F76] (AR v2)
Copy OK
Track 5
Filename D:\Desktop - копия\Radiorama - Desires And Vampires (1988)\05. Aliens.wav
Pre-gap length 0:00:01.02
Peak level 92.6 %
Extraction speed 2.7 X
Track quality 100.0 %
Test CRC 6E110D54
Copy CRC 6E110D54
Accurately ripped (confidence 6) [2218F620] (AR v2)
Copy OK
Track 6
Filename D:\Desktop - копия\Radiorama - Desires And Vampires (1988)\06. Vampires.wav
Pre-gap length 0:00:01.35
Peak level 94.4 %
Extraction speed 2.5 X
Track quality 99.9 %
Test CRC 080AAB27
Copy CRC 080AAB27
Accurately ripped (confidence 6) [16977C07] (AR v2)
Copy OK
Track 7
Filename D:\Desktop - копия\Radiorama - Desires And Vampires (1988)\07. Chance To Desire.wav
Pre-gap length 0:00:01.12
Peak level 96.7 %
Extraction speed 3.0 X
Track quality 100.0 %
Test CRC FC3BB429
Copy CRC FC3BB429
Accurately ripped (confidence 6) [25922472] (AR v2)
Copy OK
Track 8
Filename D:\Desktop - копия\Radiorama - Desires And Vampires (1988)\08. Friend.wav
Pre-gap length 0:00:01.25
Peak level 91.4 %
Extraction speed 3.1 X
Track quality 100.0 %
Test CRC F207567A
Copy CRC F207567A
Accurately ripped (confidence 6) [F1D1D1EE] (AR v2)
Copy OK
Track 9
Filename D:\Desktop - копия\Radiorama - Desires And Vampires (1988)\09. Remix Of Desire.wav
Pre-gap length 0:00:01.58
Peak level 87.4 %
Extraction speed 2.8 X
Track quality 99.9 %
Test CRC F01017BD
Copy CRC F01017BD
Accurately ripped (confidence 6) [86721E60] (AR v2)
Copy OK
All tracks accurately ripped
No errors occurred
End of status report
==== Log checksum 0A23791C64307786393040021EE8C2B252737E41DF050C4195CE7C5F97206206 ===

Содержание индексной карты (.CUE)

REM GENRE Italo-Disco
REM DATE 1988
REM DISCID 6E09F309
REM COMMENT "ExactAudioCopy v1.0b3"
PERFORMER "Radiorama"
TITLE "Desires And Vampires"
FILE "01. Desire.wav" WAVE
TRACK 01 AUDIO
TITLE "Desire"
PERFORMER "Radiorama"
INDEX 01 00:00:00
TRACK 02 AUDIO
TITLE "Flight Of Fantasy"
PERFORMER "Radiorama"
INDEX 00 03:50:73
FILE "02. Flight Of Fantasy.wav" WAVE
INDEX 01 00:00:00
TRACK 03 AUDIO
TITLE "Hey Hey"
PERFORMER "Radiorama"
INDEX 00 03:57:30
FILE "03. Hey Hey.wav" WAVE
INDEX 01 00:00:00
TRACK 04 AUDIO
TITLE "Wacha Gonna Do"
PERFORMER "Radiorama"
INDEX 00 04:34:38
FILE "04. Wacha Gonna Do.wav" WAVE
INDEX 01 00:00:00
TRACK 05 AUDIO
TITLE "Aliens"
PERFORMER "Radiorama"
INDEX 00 05:30:20
FILE "05. Aliens.wav" WAVE
INDEX 01 00:00:00
TRACK 06 AUDIO
TITLE "Vampires"
PERFORMER "Radiorama"
INDEX 00 04:10:73
FILE "06. Vampires.wav" WAVE
INDEX 01 00:00:00
TRACK 07 AUDIO
TITLE "Chance To Desire"
PERFORMER "Radiorama"
INDEX 00 06:12:23
FILE "07. Chance To Desire.wav" WAVE
INDEX 01 00:00:00
TRACK 08 AUDIO
TITLE "Friend"
PERFORMER "Radiorama"
INDEX 00 04:06:62
FILE "08. Friend.wav" WAVE
INDEX 01 00:00:00
TRACK 09 AUDIO
TITLE "Remix Of Desire"
PERFORMER "Radiorama"
INDEX 00 03:57:35
FILE "09. Remix Of Desire.wav" WAVE
INDEX 01 00:00:00

http://www.discogs.com/Radiorama-Desires-And-Vampires/release/541883
[Торрент-статистика]
[Профиль]  [ЛС] 
Показать сообщения:    
Ответить на тему

Текущее время: Сегодня 06:23

Часовой пояс: GMT + 4



Вы не можете начинать темы
Вы не можете отвечать на сообщения
Вы не можете редактировать свои сообщения
Вы не можете удалять свои сообщения
Вы не можете голосовать в опросах
Вы не можете прикреплять файлы к сообщениям
Вы не можете скачивать файлы