[CD] C.C.Catch - GRAND Collection part1 - 2007, (Disco, Pop), FLAC (image+.cue), lossless

Ответить на тему
 
Автор
Сообщение

Admiral ®

Пол:

Стаж: 7 лет 2 месяца

Сообщений: 606

Репутация: 146 [+] [-]

Пост 25-Июн-2015 12:28

[Цитировать] 

--C.C.Catch - GRAND Collection part1-- Жанр: Disco, Pop
Носитель: CD
Страна-производитель диска (релиза): Russia
Год издания: 2007
Издатель (лейбл): Квадро-Диск
Номер по каталогу: GCR227
Страна исполнителя (группы): Germany
Аудиокодек: FLAC (*.flac)
Тип рипа: image+.cue
Битрейт аудио: lossless
Продолжительность: 01::13::40
Источник (релизер): Собственный диск
Наличие сканов в содержимом раздачи: нет
Треклист:

01. Cause You Are Young
02. Heaven And Hell
03. I Can Lose My Heart Tonight
04. Strangers By Night
05. You Can't Run Away From It
06. Jump In My Car
07. Stop Dragging My Heart Around
08. Hollywood Nights
09. You Can Be My Lucky Star Tonight
10. Picture Blue Eyes
11. V.I.P. (They're Calling Me Tonight)
12. You Shot A Hole In My Soul
13. Born On The Wind
14. Tears Won't Wash Away My Heartache
15. One Night's Not Enough
16. Stay
17. Heartbreak Hotel

Отчёт EAC

Exact Audio Copy V1.0 beta 6 from 9. April 2015
Отчёт EAC об извлечении, выполненном 24. апреля 2015, 20:20
C.C. Catch / Grand Collection Part 1
Дисковод: TSSTcorpCDDVDW SH-224DB Adapter: 2 ID: 0
Режим чтения : Достоверность
Использование точного потока : Да
Отключение кэша аудио : Да
Использование указателей C2 : Нет
Коррекция смещения при чтении : 6
Способность читать области Lead-in и Lead-out : Нет
Заполнение пропущенных сэмплов тишиной : Да
Удаление блоков с тишиной в начале и конце : Нет
При вычислениях CRC использовались нулевые сэмплы : Да
Интерфейс : Установленный внешний ASPI-интерфейс
Выходной формат : Пользовательский кодировщик
Выбранный битрейт : 768 kBit/s
Качество : Высокий
Добавление ID3-тега : Нет
Утилита сжатия : C:\Program Files (x86)\Exact Audio Copy\FLAC\FLAC.EXE
Дополнительные параметры : -V -8 -T "Date=%year%" -T "Genre=%genre%" %source%
TOC извлечённого CD
Трек | Старт | Длительность | Начальный сектор | Конечный сектор
---------------------------------------------------------------------
1 | 0:00.00 | 4:47.10 | 0 | 21534
2 | 4:47.10 | 3:44.07 | 21535 | 38341
3 | 8:31.17 | 5:57.05 | 38342 | 65121
4 | 14:28.22 | 5:45.36 | 65122 | 91032
5 | 20:13.58 | 3:15.04 | 91033 | 105661
6 | 23:28.62 | 4:38.57 | 105662 | 126568
7 | 28:07.44 | 3:10.50 | 126569 | 140868
8 | 31:18.19 | 3:14.64 | 140869 | 155482
9 | 34:33.08 | 5:22.26 | 155483 | 179658
10 | 39:55.34 | 3:33.49 | 179659 | 195682
11 | 43:29.08 | 3:30.54 | 195683 | 211486
12 | 46:59.62 | 5:17.49 | 211487 | 235310
13 | 52:17.36 | 3:54.00 | 235311 | 252860
14 | 56:11.36 | 4:22.48 | 252861 | 272558
15 | 60:34.09 | 3:25.11 | 272559 | 287944
16 | 63:59.20 | 5:50.02 | 287945 | 314196
17 | 69:49.22 | 3:40.05 | 314197 | 330701
Характеристики диапазона извлечения и сообщения об ошибках
Выбранный диапазон
Имя файла C:\Users\aduard72\Desktop\Новая папка\C.C. Catch - Grand Collection Part 1.wav
Пиковый уровень 97.9 %
Скорость извлечения 3.4 X
Качество диапазона 100.0 %
CRC теста 64C6ECC3
CRC копии 64C6ECC3
Копирование... OK
Ошибок не произошло
AccurateRip: сводка
Трек 1 отсутствует в базе данных
Трек 2 отсутствует в базе данных
Трек 3 отсутствует в базе данных
Трек 4 отсутствует в базе данных
Трек 5 отсутствует в базе данных
Трек 6 отсутствует в базе данных
Трек 7 отсутствует в базе данных
Трек 8 отсутствует в базе данных
Трек 9 отсутствует в базе данных
Трек 10 отсутствует в базе данных
Трек 11 отсутствует в базе данных
Трек 12 отсутствует в базе данных
Трек 13 отсутствует в базе данных
Трек 14 отсутствует в базе данных
Трек 15 отсутствует в базе данных
Трек 16 отсутствует в базе данных
Трек 17 отсутствует в базе данных
Ни одного трека нет в базе AccurateRip
Конец отчёта
==== Контрольная сумма отчёта EA1F39E1A8CDE3ECF59AFBE8D9A2DE3777F78FA563B381312AC7E25A92B3AAD2 ====

Содержание индексной карты (.CUE)

REM GENRE Disco
REM DATE 2007
REM DISCID F0113911
REM COMMENT "ExactAudioCopy v1.0b6"
PERFORMER "C.C. Catch"
TITLE "Grand Collection Part 1"
FILE "C.C. Catch - Grand Collection Part 1.flac" WAVE
TRACK 01 AUDIO
TITLE "Cause you are young"
PERFORMER "C.C. Catch"
INDEX 01 00:00:00
TRACK 02 AUDIO
TITLE "Heaven and hell"
PERFORMER "C.C. Catch"
INDEX 00 04:45:10
INDEX 01 04:47:10
TRACK 03 AUDIO
TITLE "I can lose my heart tonight"
PERFORMER "C.C. Catch"
INDEX 00 08:29:18
INDEX 01 08:31:17
TRACK 04 AUDIO
TITLE "Strangers by night"
PERFORMER "C.C. Catch"
INDEX 00 14:26:22
INDEX 01 14:28:22
TRACK 05 AUDIO
TITLE "You can't run away from it"
PERFORMER "C.C. Catch"
INDEX 00 20:11:58
INDEX 01 20:13:58
TRACK 06 AUDIO
TITLE "Jump in my car"
PERFORMER "C.C. Catch"
INDEX 00 23:26:62
INDEX 01 23:28:62
TRACK 07 AUDIO
TITLE "Stop dragging my heart around"
PERFORMER "C.C. Catch"
INDEX 00 28:05:44
INDEX 01 28:07:44
TRACK 08 AUDIO
TITLE "Hollywood nights"
PERFORMER "C.C. Catch"
INDEX 00 31:16:19
INDEX 01 31:18:19
TRACK 09 AUDIO
TITLE "You can be my lucky star tonight"
PERFORMER "C.C. Catch"
INDEX 00 34:31:08
INDEX 01 34:33:08
TRACK 10 AUDIO
TITLE "Picture blue eyes"
PERFORMER "C.C. Catch"
INDEX 00 39:53:34
INDEX 01 39:55:34
TRACK 11 AUDIO
TITLE "V.I.P. (They're calling me tonight)"
PERFORMER "C.C. Catch"
INDEX 00 43:27:08
INDEX 01 43:29:08
TRACK 12 AUDIO
TITLE "You shoot a hole in my soul"
PERFORMER "C.C. Catch"
INDEX 00 46:57:62
INDEX 01 46:59:62
TRACK 13 AUDIO
TITLE "Born on the wind"
PERFORMER "C.C. Catch"
INDEX 00 52:15:36
INDEX 01 52:17:36
TRACK 14 AUDIO
TITLE "Tears won't wash away my heartache"
PERFORMER "C.C. Catch"
INDEX 00 56:09:36
INDEX 01 56:11:36
TRACK 15 AUDIO
TITLE "One night's not enough"
PERFORMER "C.C. Catch"
INDEX 00 60:32:09
INDEX 01 60:34:09
TRACK 16 AUDIO
TITLE "Stay"
PERFORMER "C.C. Catch"
INDEX 00 63:57:20
INDEX 01 63:59:20
TRACK 17 AUDIO
TITLE "Heartbreak hotel"
PERFORMER "C.C. Catch"
INDEX 00 69:47:22
INDEX 01 69:49:22

http://www.discogs.com/CC-Catch-Grand-Collection-Ча.../release/4586305
[Торрент-статистика]
[Профиль]  [ЛС] 
Показать сообщения:    
Ответить на тему

Текущее время: Сегодня 11:43

Часовой пояс: GMT + 4



Вы не можете начинать темы
Вы не можете отвечать на сообщения
Вы не можете редактировать свои сообщения
Вы не можете удалять свои сообщения
Вы не можете голосовать в опросах
Вы не можете прикреплять файлы к сообщениям
Вы не можете скачивать файлы