Ottawan - All Gold Of The World - 2004, (Disco), FLAC (tracks), lossless

Ответить на тему
 
Автор
Сообщение

Admiral ®

Пол:

Стаж: 7 лет 2 месяца

Сообщений: 606

Репутация: 146 [+] [-]

Пост 24-Июн-2015 08:41

[Цитировать] 

Ottawan - All Gold Of The World
Жанр: Disco
Страна: France
Страна-производитель диска (релиза): Russia
Год выпуска: 2004
Аудиокодек: FLAC (*.flac)
Тип рипа: tracks+.cue
Битрейт аудио: lossless
Продолжительность: 00:59:08
Трэклист:
01. D.I.S.C.O. (English Maxi Version)
02. You're O.K.
03. Hands Up (Give Me Your Heart)
04. Crazy Music
05. Shalala-Song
06. Comme Aux U.S.A.
07. A.I.E. Is My Song
08. Shubidube Love
09. Doudou Rumba
10. Hello Rio
11. Help Get Some Help
12. Sing Along With The Juke Box
13. D.I.S.C.O. (French Maxi Version)

Отчёт EAC

Exact Audio Copy V1.0 beta 3 from 29. August 2011
EAC extraction logfile from 6. October 2014, 19:21
Ottawan / All Gold Of The World
Used drive : HL-DT-STDVDRAM GSA-T10N Adapter: 0 ID: 0
Read mode : Secure
Utilize accurate stream : Yes
Defeat audio cache : Yes
Make use of C2 pointers : No
Read offset correction : 667
Overread into Lead-In and Lead-Out : No
Fill up missing offset samples with silence : Yes
Delete leading and trailing silent blocks : No
Null samples used in CRC calculations : Yes
Used interface : Installed external ASPI interface
Gap handling : Appended to previous track
Used output format : User Defined Encoder
Selected bitrate : 1024 kBit/s
Quality : High
Add ID3 tag : No
Command line compressor : D:\Program Files\Foobar2000\encoders\flac.exe
Additional command line options : -V -8 -T "Date=%year%" -T "Genre=%genre%" %source%
TOC of the extracted CD
Track | Start | Length | Start sector | End sector
---------------------------------------------------------
1 | 0:00.00 | 5:01.25 | 0 | 22599
2 | 5:01.25 | 5:15.17 | 22600 | 46241
3 | 10:16.42 | 4:52.37 | 46242 | 68178
4 | 15:09.04 | 5:31.03 | 68179 | 93006
5 | 20:40.07 | 3:42.38 | 93007 | 109694
6 | 24:22.45 | 4:52.24 | 109695 | 131618
7 | 29:14.69 | 3:29.39 | 131619 | 147332
8 | 32:44.33 | 2:50.66 | 147333 | 160148
9 | 35:35.24 | 3:33.50 | 160149 | 176173
10 | 39:08.74 | 4:28.25 | 176174 | 196298
11 | 43:37.24 | 4:27.01 | 196299 | 216324
12 | 48:04.25 | 4:01.12 | 216325 | 234411
13 | 52:05.37 | 7:03.08 | 234412 | 266144
Track 1
Filename D:\Desktop - копия\Ottawan - All Gold Of The World (2004)\01 D.I.S.C.O. (English Maxi Version).wav
Pre-gap length 0:00:02.00
Peak level 98.4 %
Extraction speed 2.5 X
Track quality 100.0 %
Test CRC E6C12B35
Copy CRC E6C12B35
Accurately ripped (confidence 1) [3F7839A4] (AR v2)
Copy OK
Track 2
Filename D:\Desktop - копия\Ottawan - All Gold Of The World (2004)\02 You're O.K..wav
Pre-gap length 0:00:02.00
Peak level 98.4 %
Extraction speed 2.8 X
Track quality 100.0 %
Test CRC FD17A4D1
Copy CRC FD17A4D1
Accurately ripped (confidence 1) [3041D154] (AR v2)
Copy OK
Track 3
Filename D:\Desktop - копия\Ottawan - All Gold Of The World (2004)\03 Hands Up (Give Me Your Heart).wav
Pre-gap length 0:00:02.00
Peak level 98.4 %
Extraction speed 2.7 X
Track quality 99.9 %
Test CRC D7ED47B5
Copy CRC D7ED47B5
Accurately ripped (confidence 1) [37E64BD2] (AR v2)
Copy OK
Track 4
Filename D:\Desktop - копия\Ottawan - All Gold Of The World (2004)\04 Crazy Music.wav
Pre-gap length 0:00:02.00
Peak level 98.4 %
Extraction speed 3.3 X
Track quality 100.0 %
Test CRC FD0EECDA
Copy CRC FD0EECDA
Accurately ripped (confidence 1) [393F28E0] (AR v2)
Copy OK
Track 5
Filename D:\Desktop - копия\Ottawan - All Gold Of The World (2004)\05 Shalala-Song.wav
Pre-gap length 0:00:02.00
Peak level 98.4 %
Extraction speed 3.4 X
Track quality 100.0 %
Test CRC 4418B527
Copy CRC 4418B527
Accurately ripped (confidence 1) [6451163C] (AR v2)
Copy OK
Track 6
Filename D:\Desktop - копия\Ottawan - All Gold Of The World (2004)\06 Comme Aux U.S.A..wav
Pre-gap length 0:00:02.00
Peak level 98.4 %
Extraction speed 3.7 X
Track quality 100.0 %
Test CRC 66655476
Copy CRC 66655476
Accurately ripped (confidence 1) [99738F00] (AR v2)
Copy OK
Track 7
Filename D:\Desktop - копия\Ottawan - All Gold Of The World (2004)\07 A.I.E. Is My Song.wav
Pre-gap length 0:00:02.00
Peak level 98.4 %
Extraction speed 3.5 X
Track quality 100.0 %
Test CRC 0A792B55
Copy CRC 0A792B55
Accurately ripped (confidence 1) [87FE50C1] (AR v2)
Copy OK
Track 8
Filename D:\Desktop - копия\Ottawan - All Gold Of The World (2004)\08 Shubidube Love.wav
Pre-gap length 0:00:02.00
Peak level 98.4 %
Extraction speed 3.6 X
Track quality 100.0 %
Test CRC 06E5BAF8
Copy CRC 06E5BAF8
Accurately ripped (confidence 1) [0EB50BB5] (AR v2)
Copy OK
Track 9
Filename D:\Desktop - копия\Ottawan - All Gold Of The World (2004)\09 Doudou Rumba.wav
Pre-gap length 0:00:02.00
Peak level 98.4 %
Extraction speed 3.7 X
Track quality 100.0 %
Test CRC 957CB78C
Copy CRC 957CB78C
Accurately ripped (confidence 1) [FC1A2414] (AR v2)
Copy OK
Track 10
Filename D:\Desktop - копия\Ottawan - All Gold Of The World (2004)\10 Hello Rio.wav
Pre-gap length 0:00:02.00
Peak level 98.4 %
Extraction speed 4.1 X
Track quality 100.0 %
Test CRC 0127EB0F
Copy CRC 0127EB0F
Accurately ripped (confidence 1) [23F133FF] (AR v2)
Copy OK
Track 11
Filename D:\Desktop - копия\Ottawan - All Gold Of The World (2004)\11 Help Get Some Help.wav
Pre-gap length 0:00:02.00
Peak level 98.4 %
Extraction speed 4.3 X
Track quality 100.0 %
Test CRC C3CBAB88
Copy CRC C3CBAB88
Accurately ripped (confidence 1) [F306E008] (AR v2)
Copy OK
Track 12
Filename D:\Desktop - копия\Ottawan - All Gold Of The World (2004)\12 Sing Along With The Juke Box.wav
Pre-gap length 0:00:02.00
Peak level 98.4 %
Extraction speed 4.4 X
Track quality 100.0 %
Test CRC 56886A79
Copy CRC 56886A79
Accurately ripped (confidence 1) [A6E59A62] (AR v2)
Copy OK
Track 13
Filename D:\Desktop - копия\Ottawan - All Gold Of The World (2004)\13 D.I.S.C.O. (French Maxi Version).wav
Pre-gap length 0:00:02.00
Peak level 98.4 %
Extraction speed 4.8 X
Track quality 100.0 %
Test CRC 80C1A72C
Copy CRC 80C1A72C
Accurately ripped (confidence 1) [1588612C] (AR v2)
Copy OK
All tracks accurately ripped
No errors occurred
End of status report
==== Log checksum AC0F983CF3D4A7E4E31F46070FBE1C43D95A9ACCFFF2939CA103042F151CE623 ====
[Торрент-статистика]
[Профиль]  [ЛС] 
Показать сообщения:    
Ответить на тему

Текущее время: Сегодня 23:55

Часовой пояс: GMT + 4



Вы не можете начинать темы
Вы не можете отвечать на сообщения
Вы не можете редактировать свои сообщения
Вы не можете удалять свои сообщения
Вы не можете голосовать в опросах
Вы не можете прикреплять файлы к сообщениям
Вы не можете скачивать файлы