[CD] Arabesque - Gold Hits (2CD) - 2008, (Disco), FLAC (image+.cue), lossless

Ответить на тему
 
Автор
Сообщение

Admiral ®

Пол:

Стаж: 7 лет 2 месяца

Сообщений: 606

Репутация: 146 [+] [-]

Пост 25-Май-2015 23:27

[Цитировать] 

--Arabesque - Gold Hits-- Жанр: Disco
Носитель: CD
Страна-производитель диска (релиза): Ukraine
Год издания: 2008
Издатель (лейбл): Одиссей / Monopol Records
Номер по каталогу: OD 000748
Страна исполнителя (группы): Germany
Аудиокодек: FLAC (*.flac)
Тип рипа: image+.cue
Битрейт аудио: lossless
Продолжительность: 02:12:54
Источник (релизер): Собственный диск
Наличие сканов в содержимом раздачи: да
Треклист:

CD 1

Продолжительность :01:05:53
01. Don?t fall away from me [03:37]
02. Don?t kiss a crocodile [03:32]
03. Don?t wait for a Sailor [04:05]
04. Dreamin [03:35]
05. Ecstasy [03:35]
06. Fly high little Butterfly [03:29]
07. Fools Paradise [03:27]
08. For you Smile [02:58]
09. Friday Night [04:17]
10. Give it up [03:59]
11. Heart on Fire [03:38]
12. Hell Driver [04:59]
13. Hello, Mr. Monkey [03:30]
14. Hey what a Magic Night [03:15]
15. Hey catch on [03:19]
16. The rebels of the Bounty [04:02]
17. The smile of a clown [04:02]
18. Time to say good Bye [03:40]

Отчёт ЕАС

Exact Audio Copy V0.99 prebeta 5 from 4. May 2009
EAC extraction logfile from 30. September 2010, 6:34
Arabesque / Gold Hits 2
Used drive : ASUS DRW-2014L1T Adapter: 4 ID: 2
Read mode : Secure
Utilize accurate stream : Yes
Defeat audio cache : Yes
Make use of C2 pointers : No
Read offset correction : 6
Overread into Lead-In and Lead-Out : No
Fill up missing offset samples with silence : Yes
Delete leading and trailing silent blocks : No
Null samples used in CRC calculations : Yes
Used interface : Native Win32 interface for Win NT & 2000
Used output format : User Defined Encoder
Selected bitrate : 768 kBit/s
Quality : High
Add ID3 tag : No
Command line compressor : F:\Program Files\Exact Audio Copy\FLAC\FLAC.EXE
Additional command line options : -T "DATE=%y" -T "GENRE=%m" -8 -V %s
TOC of the extracted CD
Track | Start | Length | Start sector | End sector
---------------------------------------------------------
1 | 0:00.00 | 3:37.40 | 0 | 16314
2 | 3:37.40 | 3:32.04 | 16315 | 32218
3 | 7:09.44 | 4:04.55 | 32219 | 50573
4 | 11:14.24 | 3:34.54 | 50574 | 66677
5 | 14:49.03 | 3:35.40 | 66678 | 82842
6 | 18:24.43 | 3:29.17 | 82843 | 98534
7 | 21:53.60 | 3:27.05 | 98535 | 114064
8 | 25:20.65 | 2:57.20 | 114065 | 127359
9 | 28:18.10 | 4:17.54 | 127360 | 146688
10 | 32:35.64 | 3:58.36 | 146689 | 164574
11 | 36:34.25 | 3:38.21 | 164575 | 180945
12 | 40:12.46 | 4:58.52 | 180946 | 203347
13 | 45:11.23 | 3:30.02 | 203348 | 219099
14 | 48:41.25 | 3:15.30 | 219100 | 233754
15 | 51:56.55 | 3:19.11 | 233755 | 248690
16 | 55:15.66 | 4:01.25 | 248691 | 266790
17 | 59:17.16 | 4:02.58 | 266791 | 284998
18 | 63:19.74 | 3:39.57 | 284999 | 301480
Range status and errors
Selected range
Filename W:\EAC\Arabesque - Gold Hits 2\Arabesque - Gold Hits 2.wav
Peak level 100.0 %
Range quality 100.0 %
Test CRC 9C0337F0
Copy CRC 9C0337F0
Copy OK
No errors occurred
AccurateRip summary
Track 1 not present in database
Track 2 not present in database
Track 3 not present in database
Track 4 not present in database
Track 5 not present in database
Track 6 not present in database
Track 7 not present in database
Track 8 not present in database
Track 9 not present in database
Track 10 not present in database
Track 11 not present in database
Track 12 not present in database
Track 13 not present in database
Track 14 not present in database
Track 15 not present in database
Track 16 not present in database
Track 17 not present in database
Track 18 not present in database
None of the tracks are present in the AccurateRip database
End of status report

Содержание индексной карты (.CUE)

REM GENRE Disco
REM DATE 2008
REM DISCID EC0FB312
REM COMMENT "ExactAudioCopy v0.99pb5"
PERFORMER "Arabesque"
TITLE "Gold Hits 2"
FILE "Arabesque - Gold Hits - Disc 1" WAVE
TRACK 01 AUDIO
TITLE "Arabesque / Donґt fall away from me"
PERFORMER "Arabesque"
INDEX 01 00:00:00
TRACK 02 AUDIO
TITLE "Arabesque / Donґt kiss a crocodile"
PERFORMER "Arabesque"
INDEX 01 03:37:40
TRACK 03 AUDIO
TITLE "Arabesque / Donґt wait for a Sailor"
PERFORMER "Arabesque"
INDEX 01 07:09:44
TRACK 04 AUDIO
TITLE "Arabesque / Dreamin"
PERFORMER "Arabesque"
INDEX 01 11:14:24
TRACK 05 AUDIO
TITLE "Arabesque / Ecstasy"
PERFORMER "Arabesque"
INDEX 01 14:49:03
TRACK 06 AUDIO
TITLE "Arabesque / Fly high little Butterfly"
PERFORMER "Arabesque"
INDEX 01 18:24:43
TRACK 07 AUDIO
TITLE "Arabesque / Fools Paradise"
PERFORMER "Arabesque"
INDEX 01 21:53:60
TRACK 08 AUDIO
TITLE "Arabesque / For you Smile"
PERFORMER "Arabesque"
INDEX 01 25:20:65
TRACK 09 AUDIO
TITLE "Arabesque / Friday Night"
PERFORMER "Arabesque"
INDEX 01 28:18:10
TRACK 10 AUDIO
TITLE "Arabesque / Give it up"
PERFORMER "Arabesque"
INDEX 01 32:35:64
TRACK 11 AUDIO
TITLE "Arabesque / Heart on Fire"
PERFORMER "Arabesque"
INDEX 01 36:34:25
TRACK 12 AUDIO
TITLE "Arabesque / Hell Driver"
PERFORMER "Arabesque"
INDEX 01 40:12:46
TRACK 13 AUDIO
TITLE "Arabesque / Hello, Mr. Monkey"
PERFORMER "Arabesque"
INDEX 01 45:11:23
TRACK 14 AUDIO
TITLE "Arabesque / Hey what a Magic Night"
PERFORMER "Arabesque"
INDEX 01 48:41:25
TRACK 15 AUDIO
TITLE "Arabesque / Hey catch on"
PERFORMER "Arabesque"
INDEX 01 51:56:55
TRACK 16 AUDIO
TITLE "Arabesque / The rebels of the Bounty"
PERFORMER "Arabesque"
INDEX 01 55:15:66
TRACK 17 AUDIO
TITLE "Arabesque / The smile of a clown"
PERFORMER "Arabesque"
INDEX 01 59:17:16
TRACK 18 AUDIO
TITLE "Arabesque / Time to say good Bye"
PERFORMER "Arabesque"
INDEX 01 63:19:74

CD 2

Продолжительность : 01:07:00
01. Hi, Hi Highway [04:06]
02. High Life [03:08]
03. Hit the Jackpot [03:20]
04. I don?t wanna have Breakfast with you [03:52]
05. I stand by you [03:46]
06. In for a penny, out for a pound [03:02]
07. In the Heat of Disco Night [03:18]
08. Indio Boy [03:59]
09. It?s so hard to leave you [04:06]
10. Jingle Jangle Joe [03:12]
11. Keep the wolf from the door [04:22]
12. Ladies First [03:27]
13. Let?s make a night of it [03:35]
14. Look Alive [03:49]
15. Touch and Go [03:41]
16. Tropical summer Night [03:38]
17. Why do you Ride the high Horse [03:49]
18. leer / leer [03:43]

Отчёт ЕАС

Exact Audio Copy V0.99 prebeta 5 from 4. May 2009
EAC extraction logfile from 30. September 2010, 6:55
Arabesque / Gold Hits - Disc 2
Used drive : ASUS DRW-2014L1T Adapter: 4 ID: 2
Read mode : Secure
Utilize accurate stream : Yes
Defeat audio cache : Yes
Make use of C2 pointers : No
Read offset correction : 6
Overread into Lead-In and Lead-Out : No
Fill up missing offset samples with silence : Yes
Delete leading and trailing silent blocks : No
Null samples used in CRC calculations : Yes
Used interface : Native Win32 interface for Win NT/2000
Used output format : User Defined Encoder
Selected bitrate : 768 kBit/s
Quality : High
Add ID3 tag : No
Command line compressor : F:\Program Files\Exact Audio Copy\FLAC\FLAC.EXE
Additional command line options : -T "DATE=%y" -T "GENRE=%m" -8 -V %s
TOC of the extracted CD
Track | Start | Length | Start sector | End sector
---------------------------------------------------------
1 | 0:00.00 | 4:06.38 | 0 | 18487
2 | 4:06.38 | 3:07.48 | 18488 | 32560
3 | 7:14.11 | 3:20.09 | 32561 | 47569
4 | 10:34.20 | 3:52.02 | 47570 | 64971
5 | 14:26.22 | 3:46.47 | 64972 | 81968
6 | 18:12.69 | 3:01.39 | 81969 | 95582
7 | 21:14.33 | 3:17.42 | 95583 | 110399
8 | 24:32.00 | 3:59.54 | 110400 | 128378
9 | 28:31.54 | 4:05.30 | 128379 | 146783
10 | 32:37.09 | 3:12.55 | 146784 | 161238
11 | 35:49.64 | 4:22.01 | 161239 | 180889
12 | 40:11.65 | 3:27.09 | 180890 | 196423
13 | 43:38.74 | 3:34.61 | 196424 | 212534
14 | 47:13.60 | 3:48.42 | 212535 | 229676
15 | 51:02.27 | 3:40.48 | 229677 | 246224
16 | 54:43.00 | 3:38.08 | 246225 | 262582
17 | 58:21.08 | 3:49.66 | 262583 | 279823
18 | 62:10.74 | 3:42.31 | 279824 | 296504
Range status and errors
Selected range
Filename W:\EAC\Arabesque - Gold Hits - Disc 2\Arabesque - Gold Hits - Disc 2.wav
Peak level 100.0 %
Range quality 100.0 %
Test CRC 28524B87
Copy CRC 28524B87
Copy OK
No errors occurred
AccurateRip summary
Track 1 not present in database
Track 2 not present in database
Track 3 not present in database
Track 4 not present in database
Track 5 not present in database
Track 6 not present in database
Track 7 not present in database
Track 8 not present in database
Track 9 not present in database
Track 10 not present in database
Track 11 not present in database
Track 12 not present in database
Track 13 not present in database
Track 14 not present in database
Track 15 not present in database
Track 16 not present in database
Track 17 not present in database
Track 18 not present in database
None of the tracks are present in the AccurateRip database
End of status report

Содержание индексной карты (.CUE)

REM GENRE Disco
REM DATE 2008
REM DISCID FC0F7112
REM COMMENT "ExactAudioCopy v0.99pb5"
PERFORMER "Arabesque"
TITLE "Gold Hits - Disc 2"
FILE "Arabesque - Gold Hits - Disc 2.flac" WAVE
TRACK 01 AUDIO
TITLE "Arabesque / Hi, Hi Highway"
PERFORMER "Arabesque"
INDEX 01 00:00:00
TRACK 02 AUDIO
TITLE "Arabesque / High Life"
PERFORMER "Arabesque"
INDEX 01 04:06:38
TRACK 03 AUDIO
TITLE "Arabesque / Hit the Jackpot"
PERFORMER "Arabesque"
INDEX 01 07:14:11
TRACK 04 AUDIO
TITLE "Arabesque / I donґt wanna have Breakfast with you"
PERFORMER "Arabesque"
INDEX 01 10:34:20
TRACK 05 AUDIO
TITLE "Arabesque / I stand by you"
PERFORMER "Arabesque"
INDEX 01 14:26:22
TRACK 06 AUDIO
TITLE "Arabesque / In for a penny, out for a pound"
PERFORMER "Arabesque"
INDEX 01 18:12:69
TRACK 07 AUDIO
TITLE "Arabesque / In the Heat of Disco Night"
PERFORMER "Arabesque"
INDEX 01 21:14:33
TRACK 08 AUDIO
TITLE "Arabesque / Indio Boy"
PERFORMER "Arabesque"
INDEX 01 24:32:00
TRACK 09 AUDIO
TITLE "Arabesque / Itґs so hard to leave you"
PERFORMER "Arabesque"
INDEX 01 28:31:54
TRACK 10 AUDIO
TITLE "Arabesque / Jingle Jangle Joe"
PERFORMER "Arabesque"
INDEX 01 32:37:09
TRACK 11 AUDIO
TITLE "Arabesque / Keep the wolf from the door"
PERFORMER "Arabesque"
INDEX 01 35:49:64
TRACK 12 AUDIO
TITLE "Arabesque / Ladies First"
PERFORMER "Arabesque"
INDEX 01 40:11:65
TRACK 13 AUDIO
TITLE "Arabesque / Letґs make a night of it"
PERFORMER "Arabesque"
INDEX 01 43:38:74
TRACK 14 AUDIO
TITLE "Arabesque / Look Alive"
PERFORMER "Arabesque"
INDEX 01 47:13:60
TRACK 15 AUDIO
TITLE "Arabesque / Touch and Go "
PERFORMER "Arabesque"
INDEX 01 51:02:27
TRACK 16 AUDIO
TITLE "Arabesque / Tropical summer Night"
PERFORMER "Arabesque"
INDEX 01 54:43:00
TRACK 17 AUDIO
TITLE "Arabesque / Why do you Ride the high Horse"
PERFORMER "Arabesque"
INDEX 01 58:21:08
TRACK 18 AUDIO
TITLE "leer / leer"
PERFORMER "Arabesque"
INDEX 01 62:10:74
[Торрент-статистика]
[Профиль]  [ЛС] 
Показать сообщения:    
Ответить на тему

Текущее время: Сегодня 06:06

Часовой пояс: GMT + 4



Вы не можете начинать темы
Вы не можете отвечать на сообщения
Вы не можете редактировать свои сообщения
Вы не можете удалять свои сообщения
Вы не можете голосовать в опросах
Вы не можете прикреплять файлы к сообщениям
Вы не можете скачивать файлы