[CD] Bad Boys Blue - Star Collection - 1991, (Synth-pop, Disco), FLAC (image+.cue), lossless

Ответить на тему
 
Автор
Сообщение

Admiral ®

Пол:

Стаж: 7 лет 2 месяца

Сообщений: 606

Репутация: 146 [+] [-]

Пост 19-Апр-2015 21:00

[Цитировать] 

--Bad Boys Blue - Star Collection -- Жанр: Synth-pop, Disco
Носитель: CD
Страна-производитель диска (релиза): Germany
Год издания: 1991
Издатель (лейбл): Ariola Express
Номер по каталогу: 290 566
Страна исполнителя (группы): Germany
Аудиокодек: FLAC (*.flac)
Тип рипа: image+.cue
Битрейт аудио: lossless
Продолжительность: 01:03:04
Источник (релизер): Собственный диск
Наличие сканов в содержимом раздачи: да
Треклист:

01. Love Really Hurts Without You (3:43)
02. Kisses And Tears (My One And Only) (3:59)
03. A World Without You (Michelle) (Radio Edit) (3:31)
04. Kiss You All Over, Baby (New Version) (4:12)
05. Come Back And Stay (4:08)
06. Hot Girls - Bad Boys (4:09)
07. You're A Woman (3:56)
08. Lovers In The Sand (3:40)
09. L.O.V.E. In My Car (4:03)
10. Pretty Young Girl (3:34)
11. One Night In Heaven (4:50)
12. Gimme Gimme Your Lovin' (Little Lady) (3:56)
13. Lady In Black (3:48)
14. Hungry For Love (Radio Edit) (4:16)
15. Love Is No Crime (3:35)
16. Fly Away (3:45)

Отчёт ЕАС

Exact Audio Copy V1.0 beta 3 from 29. August 2011
Отчёт EAC об извлечении, выполненном 22. ноября 2013, 22:55
Bad Boys Blue / You're A Woman
Дисковод: ASUS DRW-2014S1T Adapter: 8 ID: 0
Режим чтения : Достоверность
Использование точного потока : Да
Отключение кэша аудио : Да
Использование указателей C2 : Нет
Коррекция смещения при чтении : 6
Способность читать области Lead-in и Lead-out : Нет
Заполнение пропущенных сэмплов тишиной : Да
Удаление блоков с тишиной в начале и конце : Нет
При вычислениях CRC использовались нулевые сэмплы : Да
Интерфейс : Установленный внешний ASPI-интерфейс
Выходной формат : Внутренние WAV-операции
Формат сэмплов : 44.100 Гц; 16 бит; стерео
TOC извлечённого CD
Трек | Старт | Длительность | Начальный сектор | Конечный сектор
---------------------------------------------------------------------
1 | 0:00.33 | 3:43.22 | 33 | 16779
2 | 3:43.55 | 3:59.20 | 16780 | 34724
3 | 7:43.00 | 3:30.68 | 34725 | 50542
4 | 11:13.68 | 4:12.05 | 50543 | 69447
5 | 15:25.73 | 4:07.67 | 69448 | 88039
6 | 19:33.65 | 4:08.53 | 88040 | 106692
7 | 23:42.43 | 3:56.30 | 106693 | 124422
8 | 27:38.73 | 3:40.17 | 124423 | 140939
9 | 31:19.15 | 4:02.48 | 140940 | 159137
10 | 35:21.63 | 3:34.10 | 159138 | 175197
11 | 38:55.73 | 4:49.72 | 175198 | 196944
12 | 43:45.70 | 3:55.38 | 196945 | 214607
13 | 47:41.33 | 3:48.07 | 214608 | 231714
14 | 51:29.40 | 4:15.38 | 231715 | 250877
15 | 55:45.03 | 3:34.47 | 250878 | 266974
16 | 59:19.50 | 3:45.20 | 266975 | 283869
Характеристики диапазона извлечения и сообщения об ошибках
Выбранный диапазон
Имя файла Z:\Temp\Bad Boys Blue - You're A Woman.wav
Пиковый уровень 100.0 %
Скорость извлечения 7.6 X
Качество диапазона 100.0 %
CRC теста 711C176F
CRC копии 711C176F
Копирование... OK
Ошибок не произошло
AccurateRip: сводка
Трек 1 : извлечено точно (доверие 8) [E55FCFF4] (AR v2)
Трек 2 : извлечено точно (доверие 8) [C74F9735] (AR v2)
Трек 3 : извлечено точно (доверие 8) [05DFC7A4] (AR v2)
Трек 4 : извлечено точно (доверие 8) [957ACB23] (AR v2)
Трек 5 : извлечено точно (доверие 8) [5F99D46C] (AR v2)
Трек 6 : извлечено точно (доверие 8) [15A10846] (AR v2)
Трек 7 : извлечено точно (доверие 8) [0717C18C] (AR v2)
Трек 8 : извлечено точно (доверие 8) [A2B524E7] (AR v2)
Трек 9 : извлечено точно (доверие 8) [79562884] (AR v2)
Трек 10 : извлечено точно (доверие 8) [27C38475] (AR v2)
Трек 11 : извлечено точно (доверие 8) [425ABE8F] (AR v2)
Трек 12 : извлечено точно (доверие 8) [E8DD61AA] (AR v2)
Трек 13 : извлечено точно (доверие 8) [49AE0CAE] (AR v2)
Трек 14 : извлечено точно (доверие 8) [77C0A21E] (AR v2)
Трек 15 : извлечено точно (доверие 8) [D0F9C6FF] (AR v2)
Трек 16 : извлечено точно (доверие 8) [C7C24646] (AR v2)
Все треки извлечены точно
Конец отчёта
---- CUETools DB Plugin V2.1.3
[CTDB TOCID: HWr.SCAlyIncehM5dj0sBlCCg8w-] found, Submit result: discs with pregaps not supported in this protocol version
[f49989f9] (17/17) Differs in 0 samples @
You can use CUETools to repair this rip.
==== Контрольная сумма отчёта A89D12C40015EE4170D63CA737681267A114F03CF219546F93240CD1EE7DE687 ====

Содержание индексной карты (.CUE)

REM GENRE Disco
REM DATE 1991
REM DISCID DE0EC810
REM COMMENT "ExactAudioCopy v1.0b3"
PERFORMER "Bad Boys Blue"
TITLE "Star Collection"
FILE "Bad Boys Blue - Star Collection.flac" WAVE
TRACK 01 AUDIO
TITLE "Love Really Hurts Without You"
PERFORMER "Bad Boys Blue"
INDEX 00 00:00:00
INDEX 01 00:00:33
TRACK 02 AUDIO
TITLE "Kisses And Tears (My One And Only)"
PERFORMER "Bad Boys Blue"
INDEX 00 03:42:05
INDEX 01 03:43:55
TRACK 03 AUDIO
TITLE "A World Without You (Michelle) (Radio Edit)"
PERFORMER "Bad Boys Blue"
INDEX 00 07:41:25
INDEX 01 07:43:00
TRACK 04 AUDIO
TITLE "Kiss You All Over, Baby (New Version)"
PERFORMER "Bad Boys Blue"
INDEX 00 11:12:18
INDEX 01 11:13:68
TRACK 05 AUDIO
TITLE "Come Back And Stay"
PERFORMER "Bad Boys Blue"
INDEX 00 15:24:23
INDEX 01 15:25:73
TRACK 06 AUDIO
TITLE "Hot Girls - Bad Boys"
PERFORMER "Bad Boys Blue"
INDEX 00 19:32:15
INDEX 01 19:33:65
TRACK 07 AUDIO
TITLE "You're A Woman"
PERFORMER "Bad Boys Blue"
INDEX 00 23:40:68
INDEX 01 23:42:43
TRACK 08 AUDIO
TITLE "Lovers In The Sand"
PERFORMER "Bad Boys Blue"
INDEX 00 27:37:23
INDEX 01 27:38:73
TRACK 09 AUDIO
TITLE "L.O.V.E. In My Car"
PERFORMER "Bad Boys Blue"
INDEX 00 31:17:40
INDEX 01 31:19:15
TRACK 10 AUDIO
TITLE "Pretty Young Girl"
PERFORMER "Bad Boys Blue"
INDEX 00 35:20:13
INDEX 01 35:21:63
TRACK 11 AUDIO
TITLE "One Night In Heaven"
PERFORMER "Bad Boys Blue"
INDEX 00 38:54:23
INDEX 01 38:55:73
TRACK 12 AUDIO
TITLE "Gimme Gimme Your Lovin' (Little Lady)"
PERFORMER "Bad Boys Blue"
INDEX 00 43:44:20
INDEX 01 43:45:70
TRACK 13 AUDIO
TITLE "Lady In Black"
PERFORMER "Bad Boys Blue"
INDEX 00 47:39:58
INDEX 01 47:41:33
TRACK 14 AUDIO
TITLE "Hungry For Love (Radio Edit)"
PERFORMER "Bad Boys Blue"
INDEX 00 51:27:65
INDEX 01 51:29:40
TRACK 15 AUDIO
TITLE "Love Is No Crime"
PERFORMER "Bad Boys Blue"
INDEX 00 55:43:28
INDEX 01 55:45:03
TRACK 16 AUDIO
TITLE "Fly Away"
PERFORMER "Bad Boys Blue"
INDEX 00 59:18:00
INDEX 01 59:19:50

http://www.discogs.com/Bad-Boys-Blue-Star-Collectio.../release/1916124
[Торрент-статистика]
[Профиль]  [ЛС] 
Показать сообщения:    
Ответить на тему

Текущее время: Сегодня 04:56

Часовой пояс: GMT + 4



Вы не можете начинать темы
Вы не можете отвечать на сообщения
Вы не можете редактировать свои сообщения
Вы не можете удалять свои сообщения
Вы не можете голосовать в опросах
Вы не можете прикреплять файлы к сообщениям
Вы не можете скачивать файлы