[CD] Arabesque - The Best - Легенды дискотек 80-х - 2008, (Disco), FLAC (image+.cue), lossless

Ответить на тему
 
Автор
Сообщение

Admiral ®

Пол:

Стаж: 7 лет 2 месяца

Сообщений: 606

Репутация: 146 [+] [-]

Пост 08-Апр-2015 12:03

[Цитировать] 

--Arabesque - The Best - Легенды дискотек 80-х-- Жанр: Disco
Носитель: CD
Страна-производитель диска (релиза): Ukraine
Год издания: 2008
Издатель (лейбл): Odyssey Company
Номер по каталогу: OD 000747
Страна исполнителя (группы): Germany
Аудиокодек: FLAC (*.flac)
Тип рипа: image+.cue
Битрейт аудио: lossless
Продолжительность: 01:03:01
Источник (релизер): Собственный диск
Наличие сканов в содержимом раздачи: да
Треклист:

01. A Flash In The Pan [4:00]
02. A New Sensation [3:09]
03. Angel Face [3:15]
04. Billy. S Barbeque [2:53]
05. Black Out [3:28]
06. Born To Reggae [3:30]
07. Buggy Boy [2:59]
08. Bye, Bye My Love [3:31]
09. Bye, Bye Superman [3:26]
10. Caballero [4:02]
11. Catch Me Tiger [4:56]
12. City Cats [3:06]
13. Dance, Dance, Dance [3:12]
14. Dancing In The Fire Of Love [3:32]
15. Discover Me [3:46]
16. The Hero Of My Life [3:52]
17. The Man With The Gun [3:01]
18. The Only Night Was A Lonly Night [3:23]

Отчёт EAC

Exact Audio Copy V1.0 beta 4 from 7. December 2014
EAC extraction logfile from 26. March 2015, 14:28
Arabesque / The Best - Легенды дискотек 80-х
Used drive : Optiarc DVD RW AD-5280S Adapter: 0 ID: 0
Read mode : Secure
Utilize accurate stream : Yes
Defeat audio cache : Yes
Make use of C2 pointers : No
Read offset correction : 48
Overread into Lead-In and Lead-Out : No
Fill up missing offset samples with silence : Yes
Delete leading and trailing silent blocks : No
Null samples used in CRC calculations : Yes
Used interface : Installed external ASPI interface
Used output format : Internal WAV Routines
Sample format : 44.100 Hz; 16 Bit; Stereo
TOC of the extracted CD
Track | Start | Length | Start sector | End sector
---------------------------------------------------------
1 | 0:00.00 | 3:59.58 | 0 | 17982
2 | 3:59.58 | 3:09.05 | 17983 | 32162
3 | 7:08.63 | 3:15.25 | 32163 | 46812
4 | 10:24.13 | 2:53.20 | 46813 | 59807
5 | 13:17.33 | 3:27.74 | 59808 | 75406
6 | 16:45.32 | 3:29.66 | 75407 | 91147
7 | 20:15.23 | 2:58.58 | 91148 | 104555
8 | 23:14.06 | 3:30.48 | 104556 | 120353
9 | 26:44.54 | 3:25.57 | 120354 | 135785
10 | 30:10.36 | 4:02.26 | 135786 | 153961
11 | 34:12.62 | 4:56.03 | 153962 | 176164
12 | 39:08.65 | 3:06.19 | 176165 | 190133
13 | 42:15.09 | 3:12.37 | 190134 | 204570
14 | 45:27.46 | 3:32.06 | 204571 | 220476
15 | 48:59.52 | 3:46.30 | 220477 | 237456
16 | 52:46.07 | 3:51.73 | 237457 | 254854
17 | 56:38.05 | 3:01.28 | 254855 | 268457
18 | 59:39.33 | 3:22.39 | 268458 | 283646
Range status and errors
Selected range
Filename E:\ Arabesque - The Best - Легенды дискотек 80-х.wav
Peak level 100.0 %
Extraction speed 3.7 X
Range quality 99.9 %
Test CRC 69E1EEA3
Copy CRC 69E1EEA3
Copy OK
No errors occurred
AccurateRip summary
Track 1 not present in database
Track 2 not present in database
Track 3 not present in database
Track 4 not present in database
Track 5 not present in database
Track 6 not present in database
Track 7 not present in database
Track 8 not present in database
Track 9 not present in database
Track 10 not present in database
Track 11 not present in database
Track 12 not present in database
Track 13 not present in database
Track 14 not present in database
Track 15 not present in database
Track 16 not present in database
Track 17 not present in database
Track 18 not present in database
None of the tracks are present in the AccurateRip database
End of status report
==== Log checksum 07CE95ED86323D51A5A1217A6750A50950D78E9BA03DE31361F4A1FC80D133A3 ====

Содержание индексной карты (.CUE)

REM GENRE Disco
REM DATE 2008
REM DISCID EA0EC512
REM COMMENT
PERFORMER Arabesque
TITLE "The Best - Легенды дискотек 80-х
FILE "Arabesque - The Best - Легенды дискотек 80-х.flac" WAVE
TRACK 01 AUDIO
TITLE "A Flash In The Pan"
PERFORMER Arabesque
INDEX 01 00:00:00
TRACK 02 AUDIO
TITLE "A New Sensation"
PERFORMER Arabesque
INDEX 01 03:59:58
TRACK 03 AUDIO
TITLE "Angel Face"
PERFORMER Arabesque
INDEX 01 07:08:63
TRACK 04 AUDIO
TITLE "Billy. S Barbeque"
PERFORMER Arabesque
INDEX 01 10:24:13
TRACK 05 AUDIO
TITLE "Black Out"
PERFORMER Arabesque
INDEX 01 13:17:33
TRACK 06 AUDIO
TITLE "Born To Reggae"
PERFORMER Arabesque
INDEX 01 16:45:32
TRACK 07 AUDIO
TITLE "Buggy Boy"
PERFORMER Arabesque
INDEX 01 20:15:23
TRACK 08 AUDIO
TITLE "Bye, Bye My Love"
PERFORMER Arabesque
INDEX 01 23:14:06
TRACK 09 AUDIO
TITLE "Bye, Bye Superman"
PERFORMER Arabesque
INDEX 01 26:44:54
TRACK 10 AUDIO
TITLE Caballero
PERFORMER Arabesque
INDEX 01 30:10:36
TRACK 11 AUDIO
TITLE "Catch Me Tiger"
PERFORMER Arabesque
INDEX 01 34:12:62
TRACK 12 AUDIO
TITLE "City Cats"
PERFORMER Arabesque
INDEX 01 39:08:65
TRACK 13 AUDIO
TITLE "Dance, Dance, Dance"
PERFORMER Arabesque
INDEX 01 42:15:09
TRACK 14 AUDIO
TITLE "Dancing In The Fire Of Love"
PERFORMER Arabesque
INDEX 01 45:27:46
TRACK 15 AUDIO
TITLE "Discover Me"
PERFORMER Arabesque
INDEX 01 48:59:52
TRACK 16 AUDIO
TITLE "The Hero Of My Life"
PERFORMER Arabesque
INDEX 01 52:46:07
TRACK 17 AUDIO
TITLE "The Man With The Gun"
PERFORMER Arabesque
INDEX 01 56:38:05
TRACK 18 AUDIO
TITLE "The Only Night Was A Lonly Night"
PERFORMER Arabesque
INDEX 01 59:39:33
[Торрент-статистика]
[Профиль]  [ЛС] 
Показать сообщения:    
Ответить на тему

Текущее время: Сегодня 04:45

Часовой пояс: GMT + 4



Вы не можете начинать темы
Вы не можете отвечать на сообщения
Вы не можете редактировать свои сообщения
Вы не можете удалять свои сообщения
Вы не можете голосовать в опросах
Вы не можете прикреплять файлы к сообщениям
Вы не можете скачивать файлы