[CD] Tom Jones - Gold - 2005, (Pop,Rock), FLAC (image+.cue), lossless

Ответить на тему
 
Автор
Сообщение

Admiral ®

Пол:

Стаж: 7 лет 2 месяца

Сообщений: 606

Репутация: 146 [+] [-]

Пост 11-Фев-2015 17:33

[Цитировать] 

--Tom Jones - Gold-- Жанр: Pop,Rock
Носитель: CD
Год издания: 2005
Издатель (лейбл): Deram
Номер по каталогу: 0602498209714
Страна исполнителя (группы): Great Britain
Аудиокодек: FLAC (*.flac)
Тип рипа: image+.cue
Битрейт аудио: lossless
Продолжительность: 02:06:31
Источник (релизер): Собственный диск
Наличие сканов в содержимом раздачи: да
Треклист:

CD1

01. It's Not Unusual
02. Once Upon a Time
03. With These Hands
04. What's New Pussycat?
05. Thunderball
06. Promise Her Anything
07. To Make a Big Man Cry
08. Stop Breaking My Heart
09. Once There Was a Time
10. Not Responsible
11. This and That
12. Green, Green Grass of Home
13. Detroit City
14. Funny Familiar Forgotten Feelings
15. Sixteen Tons
16. (It Looks Like) I'll Never Fall in Love Again
17. I'm Coming Home
18. I Wake Up Crying
19. Delilah
20. Help Yourself
21. A Minute of Your Time
22. Looking Out My Window
Продолжительность: 01:01:32

CD2

01. Love Me Tonight
02. I Can't Turn You Loose
03. Without Love (There Is Nothing)
04. Let There Be Love
05. Daughter of Darkness
06. I (Who Have Nothing)
07. Can't Stop Loving You
08. She's a Lady
09. Do What You Gotta Do
10. Puppet Man
11. You're My World (Il Mio Mondo)
12. Till
13. The Young New Mexican Puppeteer
14. The Witch Queen of New Orleans
15. Letter to Lucille
16. Ain't No Sunshine
17. (If Loving You Is Wrong) I Don't Wanna Be Right
18. Pledging My Love
19. I Got Your Number
20. Memories Don't Leave Like People Do
Продолжительность: 01:04:58

Лог создания рипа

CD1

Exact Audio Copy V1.0 beta 3 from 29. August 2011
Отчёт EAC об извлечении, выполненном 11. февраля 2015, 12:14
Tom Jones / Gold
Дисковод: HL-DT-STDVDRAM GH24NSB0 Adapter: 0 ID: 1
Режим чтения : Достоверность
Использование точного потока : Да
Отключение кэша аудио : Да
Использование указателей C2 : Нет
Коррекция смещения при чтении : 6
Способность читать области Lead-in и Lead-out : Нет
Заполнение пропущенных сэмплов тишиной : Да
Удаление блоков с тишиной в начале и конце : Нет
При вычислениях CRC использовались нулевые сэмплы : Да
Интерфейс : Встроенный Win32-интерфейс для Win NT/2000
Выходной формат : Пользовательский кодировщик
Выбранный битрейт : 768 kBit/s
Качество : Высокий
Добавление ID3-тега : Нет
Утилита сжатия : C:\Program Files\Exact Audio Copy\FLAC\FLAC.EXE
Дополнительные параметры : -6 -V -T "ARTIST=%artist%" -T "TITLE=%title%" -T "ALBUM=%albumtitle%" -T "DATE=%year%" -T "TRACKNUMBER=%tracknr%" -T "GENRE=%genre%" -T "COMMENT=%comment%" -T "BAND=%albuminterpret%" -T "ALBUMARTIST=%albuminterpret%" -T "COMPOSER=%composer%" %haslyrics%--tag-from-file=LYRICS="%lyricsfile%"%haslyrics% -T "DISCNUMBER=%cdnumber%" -T "TOTALDISCS=%totalcds%" -T "TOTALTRACKS=%numtracks%" %hascover%--picture="%coverfile%"%hascover% %source% -o %dest%
TOC извлечённого CD
Трек | Старт | Длительность | Начальный сектор | Конечный сектор
---------------------------------------------------------------------
1 | 0:00.00 | 2:00.45 | 0 | 9044
2 | 2:00.45 | 2:09.30 | 9045 | 18749
3 | 4:10.00 | 2:42.61 | 18750 | 30960
4 | 6:52.61 | 2:19.20 | 30961 | 41405
5 | 9:12.06 | 2:52.43 | 41406 | 54348
6 | 12:04.49 | 2:35.00 | 54349 | 65973
7 | 14:39.49 | 2:47.00 | 65974 | 78498
8 | 17:26.49 | 2:27.28 | 78499 | 89551
9 | 19:54.02 | 2:27.26 | 89552 | 100602
10 | 22:21.28 | 2:08.57 | 100603 | 110259
11 | 24:30.10 | 2:59.38 | 110260 | 123722
12 | 27:29.48 | 3:05.25 | 123723 | 137622
13 | 30:34.73 | 3:33.02 | 137623 | 153599
14 | 34:08.00 | 2:56.68 | 153600 | 166867
15 | 37:04.68 | 3:09.10 | 166868 | 181052
16 | 40:14.03 | 4:14.45 | 181053 | 200147
17 | 44:28.48 | 3:08.00 | 200148 | 214247
18 | 47:36.48 | 2:20.00 | 214248 | 224747
19 | 49:56.48 | 3:24.02 | 224748 | 240049
20 | 53:20.50 | 2:54.68 | 240050 | 253167
21 | 56:15.43 | 2:57.32 | 253168 | 266474
22 | 59:13.00 | 2:19.12 | 266475 | 276911
Характеристики диапазона извлечения и сообщения об ошибках
Выбранный диапазон
Имя файла C:\Tom Jones - Gold.wav
Пиковый уровень 100.0 %
Скорость извлечения 1.8 X
Качество диапазона 99.9 %
CRC теста 1E3D3A62
CRC копии 1E3D3A62
Копирование... OK
Ошибок не произошло
AccurateRip: сводка
Трек 1 точность не определена (достоверность 35) [4F320A56], AccurateRip вернул [239F374C] (AR v2)
Трек 2 точность не определена (достоверность 33) [90EE644C], AccurateRip вернул [35808640] (AR v2)
Трек 3 точность не определена (достоверность 34) [7EF7D703], AccurateRip вернул [1D45751F] (AR v2)
Трек 4 точность не определена (достоверность 34) [3DA391C8], AccurateRip вернул [0DA77432] (AR v2)
Трек 5 точность не определена (достоверность 34) [6C46423B], AccurateRip вернул [4A49530F] (AR v2)
Трек 6 точность не определена (достоверность 33) [EC75AB47], AccurateRip вернул [4A37F92E] (AR v2)
Трек 7 точность не определена (достоверность 33) [B4046325], AccurateRip вернул [06FF3E9F] (AR v2)
Трек 8 точность не определена (достоверность 33) [66E966D0], AccurateRip вернул [6C82AEDB] (AR v2)
Трек 9 точность не определена (достоверность 33) [53C3A687], AccurateRip вернул [E03C5950] (AR v2)
Трек 10 точность не определена (достоверность 33) [45C039ED], AccurateRip вернул [407E2A1B] (AR v2)
Трек 11 точность не определена (достоверность 33) [1C4A80A2], AccurateRip вернул [73E39EDA] (AR v2)
Трек 12 точность не определена (достоверность 35) [CA43EC29], AccurateRip вернул [9348F875] (AR v2)
Трек 13 точность не определена (достоверность 34) [06F56780], AccurateRip вернул [E0EDA0A1] (AR v2)
Трек 14 точность не определена (достоверность 33) [141E97FB], AccurateRip вернул [CD2B8A7E] (AR v2)
Трек 15 точность не определена (достоверность 34) [7EB3E2E8], AccurateRip вернул [86E77DE6] (AR v2)
Трек 16 точность не определена (достоверность 34) [5ED5AD3A], AccurateRip вернул [7A54EAB1] (AR v2)
Трек 17 точность не определена (достоверность 35) [D1AB55D5], AccurateRip вернул [EC174E10] (AR v2)
Трек 18 точность не определена (достоверность 33) [C52ACDD4], AccurateRip вернул [53B91B6F] (AR v2)
Трек 19 точность не определена (достоверность 35) [008DAFB5], AccurateRip вернул [2F8E50C8] (AR v2)
Трек 20 точность не определена (достоверность 34) [7AEB3569], AccurateRip вернул [09AC6189] (AR v2)
Трек 21 точность не определена (достоверность 32) [0F80BB9C], AccurateRip вернул [078B35F2] (AR v2)
Трек 22 точность не определена (достоверность 32) [63379D11], AccurateRip вернул [D943EE54] (AR v2)
Ни один трек не прошёл проверки на точность
В вашей базе может быть иной вариант штамповки диска
Конец отчёта
==== Контрольная сумма отчёта F6BF1DFEE8B0B66D7D3FDF7ADC8E767A47FC54CFCB4F6D8547E25FDB81B6C5AF ====

CD2

Exact Audio Copy V1.0 beta 3 from 29. August 2011
Отчёт EAC об извлечении, выполненном 11. февраля 2015, 13:52
Tom Jones / Gold
Дисковод: HL-DT-STDVDRAM GH24NSB0 Adapter: 0 ID: 1
Режим чтения : Достоверность
Использование точного потока : Да
Отключение кэша аудио : Да
Использование указателей C2 : Нет
Коррекция смещения при чтении : 6
Способность читать области Lead-in и Lead-out : Нет
Заполнение пропущенных сэмплов тишиной : Да
Удаление блоков с тишиной в начале и конце : Нет
При вычислениях CRC использовались нулевые сэмплы : Да
Интерфейс : Встроенный Win32-интерфейс для Win NT/2000
Выходной формат : Пользовательский кодировщик
Выбранный битрейт : 768 kBit/s
Качество : Высокий
Добавление ID3-тега : Нет
Утилита сжатия : C:\Program Files\Exact Audio Copy\FLAC\FLAC.EXE
Дополнительные параметры : -6 -V -T "ARTIST=%artist%" -T "TITLE=%title%" -T "ALBUM=%albumtitle%" -T "DATE=%year%" -T "TRACKNUMBER=%tracknr%" -T "GENRE=%genre%" -T "COMMENT=%comment%" -T "BAND=%albuminterpret%" -T "ALBUMARTIST=%albuminterpret%" -T "COMPOSER=%composer%" %haslyrics%--tag-from-file=LYRICS="%lyricsfile%"%haslyrics% -T "DISCNUMBER=%cdnumber%" -T "TOTALDISCS=%totalcds%" -T "TOTALTRACKS=%numtracks%" %hascover%--picture="%coverfile%"%hascover% %source% -o %dest%
TOC извлечённого CD
Трек | Старт | Длительность | Начальный сектор | Конечный сектор
---------------------------------------------------------------------
1 | 0:00.00 | 3:12.18 | 0 | 14417
2 | 3:12.18 | 2:10.67 | 14418 | 24234
3 | 5:23.10 | 3:45.15 | 24235 | 41124
4 | 9:08.25 | 3:36.63 | 41125 | 57387
5 | 12:45.13 | 3:17.12 | 57388 | 72174
6 | 16:02.25 | 2:57.23 | 72175 | 85472
7 | 18:59.48 | 4:09.47 | 85473 | 104194
8 | 23:09.20 | 2:54.15 | 104195 | 117259
9 | 26:03.35 | 2:52.35 | 117260 | 130194
10 | 28:55.70 | 3:25.02 | 130195 | 145571
11 | 32:20.72 | 3:25.38 | 145572 | 160984
12 | 35:46.35 | 2:18.25 | 160985 | 171359
13 | 38:04.60 | 4:35.12 | 171360 | 191996
14 | 42:39.72 | 2:35.50 | 191997 | 203671
15 | 45:15.47 | 3:04.33 | 203672 | 217504
16 | 48:20.05 | 2:37.32 | 217505 | 229311
17 | 50:57.37 | 3:27.10 | 229312 | 244846
18 | 54:24.47 | 2:51.23 | 244847 | 257694
19 | 57:15.70 | 3:25.65 | 257695 | 273134
20 | 60:41.60 | 4:17.13 | 273135 | 292422
Характеристики диапазона извлечения и сообщения об ошибках
Выбранный диапазон
Имя файла C:\СD2\Tom Jones - Gold.wav
Пиковый уровень 100.0 %
Скорость извлечения 1.8 X
Качество диапазона 99.9 %
CRC теста 54E3D119
CRC копии 54E3D119
Копирование... OK
Ошибок не произошло
AccurateRip: сводка
Трек 1 точность не определена (достоверность 34) [253E6BDD], AccurateRip вернул [9ED70FC0] (AR v2)
Трек 2 точность не определена (достоверность 33) [14027621], AccurateRip вернул [C0CABD36] (AR v2)
Трек 3 точность не определена (достоверность 33) [E504850A], AccurateRip вернул [19B766CE] (AR v2)
Трек 4 точность не определена (достоверность 33) [C004C364], AccurateRip вернул [7B7DA896] (AR v2)
Трек 5 точность не определена (достоверность 33) [CB45AC22], AccurateRip вернул [DBF7D2CD] (AR v2)
Трек 6 точность не определена (достоверность 34) [04C3A210], AccurateRip вернул [5B71EDE8] (AR v2)
Трек 7 точность не определена (достоверность 34) [13558C2D], AccurateRip вернул [7624A5B0] (AR v2)
Трек 8 точность не определена (достоверность 33) [C96B874B], AccurateRip вернул [EF146BCC] (AR v2)
Трек 9 точность не определена (достоверность 32) [ADE26E44], AccurateRip вернул [15B66BB5] (AR v2)
Трек 10 точность не определена (достоверность 33) [C292B095], AccurateRip вернул [34E1A901] (AR v2)
Трек 11 точность не определена (достоверность 34) [4B4695FC], AccurateRip вернул [A8C991FE] (AR v2)
Трек 12 точность не определена (достоверность 33) [8F7278CE], AccurateRip вернул [00419323] (AR v2)
Трек 13 точность не определена (достоверность 34) [46E2BAF2], AccurateRip вернул [AB4D7262] (AR v2)
Трек 14 точность не определена (достоверность 34) [5F72DA9D], AccurateRip вернул [C93C9380] (AR v2)
Трек 15 точность не определена (достоверность 32) [5F71D1AD], AccurateRip вернул [AC94ADDD] (AR v2)
Трек 16 точность не определена (достоверность 33) [69B3281F], AccurateRip вернул [66467C77] (AR v2)
Трек 17 точность не определена (достоверность 32) [1F555ED3], AccurateRip вернул [83A2A2E2] (AR v2)
Трек 18 точность не определена (достоверность 32) [977590F6], AccurateRip вернул [D1CAF504] (AR v2)
Трек 19 точность не определена (достоверность 32) [EF7607D7], AccurateRip вернул [21947211] (AR v2)
Трек 20 точность не определена (достоверность 31) [53B0A3CE], AccurateRip вернул [090CFD0F] (AR v2)
Ни один трек не прошёл проверки на точность
В вашей базе может быть иной вариант штамповки диска
Конец отчёта
==== Контрольная сумма отчёта B557106BE778F66FBE090FD9DF0424418468B2A839DA919CE72A732FE2BDE824 ====

Содержание индексной карты (.CUE)

CD1

REM GENRE Pop
REM DATE 2005
REM DISCID 2D0E6C16
REM COMMENT "ExactAudioCopy v1.0b3"
PERFORMER "Tom Jones"
TITLE "Gold"
FILE "Tom Jones - Gold.flac" WAVE
TRACK 01 AUDIO
TITLE "It`s Not Unusual"
PERFORMER "Tom Jones"
INDEX 01 00:00:00
TRACK 02 AUDIO
TITLE "Once Upon A Time"
PERFORMER "Tom Jones"
INDEX 00 01:59:09
INDEX 01 02:00:45
TRACK 03 AUDIO
TITLE "With These Hands"
PERFORMER "Tom Jones"
INDEX 00 04:08:56
INDEX 01 04:10:00
TRACK 04 AUDIO
TITLE "What`s New Pussycat?"
PERFORMER "Tom Jones"
INDEX 00 06:51:59
INDEX 01 06:52:61
TRACK 05 AUDIO
TITLE "Thunderball"
PERFORMER "Tom Jones"
INDEX 00 09:10:63
INDEX 01 09:12:06
TRACK 06 AUDIO
TITLE "Promise Her Anytning"
PERFORMER "Tom Jones"
INDEX 00 12:03:18
INDEX 01 12:04:49
TRACK 07 AUDIO
TITLE "To Make A Big Man Cry"
PERFORMER "Tom Jones"
INDEX 00 14:38:26
INDEX 01 14:39:49
TRACK 08 AUDIO
TITLE "Stop Breaking My Heart"
PERFORMER "Tom Jones"
INDEX 00 17:25:05
INDEX 01 17:26:49
TRACK 09 AUDIO
TITLE "Once There Was A Time"
PERFORMER "Tom Jones"
INDEX 00 19:52:58
INDEX 01 19:54:02
TRACK 10 AUDIO
TITLE "Not Responsible"
PERFORMER "Tom Jones"
INDEX 00 22:20:18
INDEX 01 22:21:28
TRACK 11 AUDIO
TITLE "This And That"
PERFORMER "Tom Jones"
INDEX 00 24:28:67
INDEX 01 24:30:10
TRACK 12 AUDIO
TITLE "Green,Green Grass Of Home"
PERFORMER "Tom Jones"
INDEX 00 27:28:26
INDEX 01 27:29:48
TRACK 13 AUDIO
TITLE "Detroit City"
PERFORMER "Tom Jones"
INDEX 00 30:33:67
INDEX 01 30:34:73
TRACK 14 AUDIO
TITLE "Funny Familiar Forgotten Feelings"
PERFORMER "Tom Jones"
INDEX 00 34:06:56
INDEX 01 34:08:00
TRACK 15 AUDIO
TITLE "Sixteen Tons"
PERFORMER "Tom Jones"
INDEX 00 37:03:48
INDEX 01 37:04:68
TRACK 16 AUDIO
TITLE "(It Looks Like) I`II Never Fall ln Love Again"
PERFORMER "Tom Jones"
INDEX 00 40:12:59
INDEX 01 40:14:03
TRACK 17 AUDIO
TITLE "l`m Coming Home"
PERFORMER "Tom Jones"
INDEX 00 44:27:30
INDEX 01 44:28:48
TRACK 18 AUDIO
TITLE "l Wake Up Crying"
PERFORMER "Tom Jones"
INDEX 00 47:35:32
INDEX 01 47:36:48
TRACK 19 AUDIO
TITLE "Delilah"
PERFORMER "Tom Jones"
INDEX 00 49:55:29
INDEX 01 49:56:48
TRACK 20 AUDIO
TITLE "Help Yourself"
PERFORMER "Tom Jones"
INDEX 00 53:19:33
INDEX 01 53:20:50
TRACK 21 AUDIO
TITLE "A Minute Of Your Time"
PERFORMER "Tom Jones"
INDEX 00 56:13:73
INDEX 01 56:15:43
TRACK 22 AUDIO
TITLE "Looking Out My Window"
PERFORMER "Tom Jones"
INDEX 00 59:11:56
INDEX 01 59:13:00

CD2

REM GENRE Pop
REM DATE 2005
REM DISCID 240F3A14
REM COMMENT "ExactAudioCopy v1.0b3"
PERFORMER "Tom Jones"
TITLE "Gold"
FILE "Tom Jones - Gold.flac" WAVE
TRACK 01 AUDIO
TITLE "Love Me Tonight"
PERFORMER "Tom Jones"
INDEX 01 00:00:00
TRACK 02 AUDIO
TITLE "I Can`t Turn You Loose"
PERFORMER "Tom Jones"
INDEX 00 03:10:73
INDEX 01 03:12:18
TRACK 03 AUDIO
TITLE "Without Love (There Is Nothing)"
PERFORMER "Tom Jones"
INDEX 00 05:21:66
INDEX 01 05:23:10
TRACK 04 AUDIO
TITLE "Let There Be Love"
PERFORMER "Tom Jones"
INDEX 00 09:07:06
INDEX 01 09:08:25
TRACK 05 AUDIO
TITLE "Daughter Of Darkness"
PERFORMER "Tom Jones"
INDEX 00 12:43:61
INDEX 01 12:45:13
TRACK 06 AUDIO
TITLE "I(Who Have Nothing"
PERFORMER "Tom Jones"
INDEX 00 16:01:02
INDEX 01 16:02:25
TRACK 07 AUDIO
TITLE "Can`t Stop Loving You"
PERFORMER "Tom Jones"
INDEX 00 18:58:33
INDEX 01 18:59:48
TRACK 08 AUDIO
TITLE "She`s A Lady"
PERFORMER "Tom Jones"
INDEX 00 23:08:00
INDEX 01 23:09:20
TRACK 09 AUDIO
TITLE "Do What You Gotta Do"
PERFORMER "Tom Jones"
INDEX 00 26:02:07
INDEX 01 26:03:35
TRACK 10 AUDIO
TITLE "Puppet Man"
PERFORMER "Tom Jones"
INDEX 00 28:54:52
INDEX 01 28:55:70
TRACK 11 AUDIO
TITLE "You`re My Worid (ll Mio Mondo)"
PERFORMER "Tom Jones"
INDEX 00 32:19:54
INDEX 01 32:20:72
TRACK 12 AUDIO
TITLE "Till"
PERFORMER "Tom Jones"
INDEX 00 35:45:04
INDEX 01 35:46:35
TRACK 13 AUDIO
TITLE "The Young New Mexican Puppeteer"
PERFORMER "Tom Jones"
INDEX 00 38:03:34
INDEX 01 38:04:60
TRACK 14 AUDIO
TITLE "The Witch Queen Of New Orieans"
PERFORMER "Tom Jones"
INDEX 00 42:38:54
INDEX 01 42:39:72
TRACK 15 AUDIO
TITLE "Letter To Lucille"
PERFORMER "Tom Jones"
INDEX 00 45:14:23
INDEX 01 45:15:47
TRACK 16 AUDIO
TITLE "Ain`t No Sunshine"
PERFORMER "Tom Jones"
INDEX 00 48:18:67
INDEX 01 48:20:05
TRACK 17 AUDIO
TITLE "(Lf Loving You ls Wrong) l Don`t Wanna Be Right"
PERFORMER "Tom Jones"
INDEX 00 50:56:18
INDEX 01 50:57:37
TRACK 18 AUDIO
TITLE "Pledgihg My Love"
PERFORMER "Tom Jones"
INDEX 00 54:23:29
INDEX 01 54:24:47
TRACK 19 AUDIO
TITLE "l Got Your Number"
PERFORMER "Tom Jones"
INDEX 00 57:14:52
INDEX 01 57:15:70
TRACK 20 AUDIO
TITLE "Memories Don`t Leave Like People Do"
PERFORMER "Tom Jones"
INDEX 00 60:40:43
INDEX 01 60:41:60

http://www.discogs.com/Tom-Jones-Gold-1965-1975/release/3572495
[Торрент-статистика]
[Профиль]  [ЛС] 
Показать сообщения:    
Ответить на тему

Текущее время: Сегодня 02:24

Часовой пояс: GMT + 4



Вы не можете начинать темы
Вы не можете отвечать на сообщения
Вы не можете редактировать свои сообщения
Вы не можете удалять свои сообщения
Вы не можете голосовать в опросах
Вы не можете прикреплять файлы к сообщениям
Вы не можете скачивать файлы