[CD] London Boys - Золотые Хиты Дискотек - 2001, (Disco), FLAC (image+.cue), lossless

Ответить на тему
 
Автор
Сообщение

Admiral ®

Пол:

Стаж: 7 лет 2 месяца

Сообщений: 606

Репутация: 146 [+] [-]

Пост 02-Фев-2015 19:13

[Цитировать] 

--London Boys - Золотые Хиты Дискотек-- Жанр: Disco
Носитель: CD
Страна-производитель диска (релиза): Russia
Год издания: 2001
Издатель (лейбл): Winner Music
Номер по каталогу: V144
Страна исполнителя (группы): Germany
Аудиокодек: FLAC (*.flac)
Тип рипа: image+.cue
Битрейт аудио: lossless
Продолжительность: 00:58:16
Источник (релизер): Собственный диск
Наличие сканов в содержимом раздачи: да
Треклист:

01. Requiem
02. Harlem despire
03. Chinese radio
04. London nigats
05. I`m gonna give my heart
06. El matinero
07. Sandra
08. Wichtitan woman
09. My love
10. The midi dance
11. Tonight!Tonight!
12. Oh,tracy
13. Freedom
14. Love train
15. Chapel of love

Лог создания рипа

Exact Audio Copy V1.0 beta 3 from 29. August 2011
Отчёт EAC об извлечении, выполненном 11. сентября 2014, 14:53
London Boys / Золотые Хиты Дискотек
Дисковод: HL-DT-STDVDRAM GH24NSB0 Adapter: 0 ID: 1
Режим чтения : Достоверность
Использование точного потока : Да
Отключение кэша аудио : Да
Использование указателей C2 : Нет
Коррекция смещения при чтении : 6
Способность читать области Lead-in и Lead-out : Нет
Заполнение пропущенных сэмплов тишиной : Да
Удаление блоков с тишиной в начале и конце : Нет
При вычислениях CRC использовались нулевые сэмплы : Да
Интерфейс : Встроенный Win32-интерфейс для Win NT/2000
Выходной формат : Пользовательский кодировщик
Выбранный битрейт : 768 kBit/s
Качество : Высокий
Добавление ID3-тега : Нет
Утилита сжатия : C:\Program Files\Exact Audio Copy\FLAC\FLAC.EXE
Дополнительные параметры : -6 -V -T "ARTIST=%artist%" -T "TITLE=%title%" -T "ALBUM=%albumtitle%" -T "DATE=%year%" -T "TRACKNUMBER=%tracknr%" -T "GENRE=%genre%" -T "COMMENT=%comment%" -T "BAND=%albuminterpret%" -T "ALBUMARTIST=%albuminterpret%" -T "COMPOSER=%composer%" %haslyrics%--tag-from-file=LYRICS="%lyricsfile%"%haslyrics% -T "DISCNUMBER=%cdnumber%" -T "TOTALDISCS=%totalcds%" -T "TOTALTRACKS=%numtracks%" %hascover%--picture="%coverfile%"%hascover% %source% -o %dest%
TOC извлечённого CD
Трек | Старт | Длительность | Начальный сектор | Конечный сектор
---------------------------------------------------------------------
1 | 0:00.00 | 4:14.33 | 0 | 19082
2 | 4:14.33 | 3:44.39 | 19083 | 35921
3 | 7:58.72 | 3:47.40 | 35922 | 52986
4 | 11:46.37 | 4:00.24 | 52987 | 71010
5 | 15:46.61 | 4:05.21 | 71011 | 89406
6 | 19:52.07 | 4:11.23 | 89407 | 108254
7 | 24:03.30 | 4:46.57 | 108255 | 129761
8 | 28:50.12 | 3:55.33 | 129762 | 147419
9 | 32:45.45 | 3:05.63 | 147420 | 161357
10 | 35:51.33 | 3:11.09 | 161358 | 175691
11 | 39:02.42 | 3:52.72 | 175692 | 193163
12 | 42:55.39 | 3:52.40 | 193164 | 210603
13 | 46:48.04 | 3:57.71 | 210604 | 228449
14 | 50:46.00 | 3:52.41 | 228450 | 245890
15 | 54:38.41 | 3:38.18 | 245891 | 262258
Характеристики диапазона извлечения и сообщения об ошибках
Выбранный диапазон
Имя файла E:\London Boys-Золотые Хиты Дискотек\London Boys - Золотые Хиты Дискотек.wav
Пиковый уровень 96.6 %
Скорость извлечения 1.8 X
Качество диапазона 100.0 %
CRC копии 82CB5DCD
Копирование... OK
Ошибок не произошло
AccurateRip: сводка
Трек 1 : извлечено точно (доверие 1) [C56C503C] (AR v2)
Трек 2 : извлечено точно (доверие 1) [DB8672BC] (AR v2)
Трек 3 : извлечено точно (доверие 1) [F7D395DE] (AR v2)
Трек 4 : извлечено точно (доверие 1) [F30F6C7F] (AR v2)
Трек 5 : извлечено точно (доверие 1) [960F65C2] (AR v2)
Трек 6 : извлечено точно (доверие 1) [01055F91] (AR v2)
Трек 7 : извлечено точно (доверие 1) [E14B0F98] (AR v2)
Трек 8 : извлечено точно (доверие 1) [6C48FFF3] (AR v2)
Трек 9 : извлечено точно (доверие 1) [CC30F9D8] (AR v2)
Трек 10 : извлечено точно (доверие 1) [02F29C10] (AR v2)
Трек 11 : извлечено точно (доверие 1) [398AD187] (AR v2)
Трек 12 : извлечено точно (доверие 1) [E8ADB55E] (AR v2)
Трек 13 : извлечено точно (доверие 1) [6D098027] (AR v2)
Трек 14 : извлечено точно (доверие 1) [495EACB2] (AR v2)
Трек 15 : извлечено точно (доверие 1) [D6FB0B80] (AR v2)
Все треки извлечены точно
Конец отчёта
==== Контрольная сумма отчёта CE6113A0F0C545A97667DB55059D7C74CF1381E55B4A6B86B706C1C0E2BD5DD6 ====

Содержание индексной карты (.CUE)

REM GENRE Disco
REM DATE 2001
REM DISCID D40DA80F
REM COMMENT "ExactAudioCopy v1.0b3"
PERFORMER "London Boys"
TITLE "Золотые Хиты Дискотек"
FILE "London Boys - Золотые Хиты Дискотек.flac" WAVE
TRACK 01 AUDIO
TITLE "Requiem"
PERFORMER "London Boys"
INDEX 01 00:00:00
TRACK 02 AUDIO
TITLE "Harlem despire"
PERFORMER "London Boys"
INDEX 01 04:14:33
TRACK 03 AUDIO
TITLE "Chinese radio"
PERFORMER "London Boys"
INDEX 01 07:58:72
TRACK 04 AUDIO
TITLE "London nigats"
PERFORMER "London Boys"
INDEX 01 11:46:37
TRACK 05 AUDIO
TITLE "I`m gonna give my heart"
PERFORMER "London Boys"
INDEX 01 15:46:61
TRACK 06 AUDIO
TITLE "El matinero"
PERFORMER "London Boys"
INDEX 01 19:52:07
TRACK 07 AUDIO
TITLE "Sandra"
PERFORMER "London Boys"
INDEX 01 24:03:30
TRACK 08 AUDIO
TITLE "Wichtitan woman"
PERFORMER "London Boys"
INDEX 01 28:50:12
TRACK 09 AUDIO
TITLE "My love"
PERFORMER "London Boys"
INDEX 01 32:45:45
TRACK 10 AUDIO
TITLE "The midi dance"
PERFORMER "London Boys"
INDEX 01 35:51:33
TRACK 11 AUDIO
TITLE "Tonight!Tonight!"
PERFORMER "London Boys"
INDEX 01 39:02:42
TRACK 12 AUDIO
TITLE "Oh,tracy"
PERFORMER "London Boys"
INDEX 01 42:55:39
TRACK 13 AUDIO
TITLE "Freedom"
PERFORMER "London Boys"
INDEX 01 46:48:04
TRACK 14 AUDIO
TITLE "Love train"
PERFORMER "London Boys"
INDEX 01 50:46:00
TRACK 15 AUDIO
TITLE "Chapel of love"
PERFORMER "London Boys"
INDEX 01 54:38:41
[Торрент-статистика]
[Профиль]  [ЛС] 
Показать сообщения:    
Ответить на тему

Текущее время: Сегодня 05:27

Часовой пояс: GMT + 4



Вы не можете начинать темы
Вы не можете отвечать на сообщения
Вы не можете редактировать свои сообщения
Вы не можете удалять свои сообщения
Вы не можете голосовать в опросах
Вы не можете прикреплять файлы к сообщениям
Вы не можете скачивать файлы