[CD] Ottawan - The Best - 2006, (Disco), FLAC (image+.cue), lossless

Ответить на тему
 
Автор
Сообщение

Admiral ®

Пол:

Стаж: 7 лет 2 месяца

Сообщений: 606

Репутация: 146 [+] [-]

Пост 01-Фев-2015 20:48

[Цитировать] 

--Ottawan - The Best-- Жанр: Disco
Носитель: CD
Страна-производитель диска (релиза): Russia
Год издания: 2006
Издатель (лейбл): Roba Music
Номер по каталогу: TR-284
Страна исполнителя (группы): Germany
Аудиокодек: FLAC (*.flac)
Тип рипа: image+.cue
Битрейт аудио: lossless
Продолжительность: 00:54:06
Источник (релизер): Собственный диск
Наличие сканов в содержимом раздачи: да
Треклист:

01. D.I.S.C.O. (English Version)
02. You're O.K. / T'es O.K. (English & French Version)
03. Hands Up (Give Me Your Heart) (Maxi Version)
04. Crazy Music (Maxi Version)
05. Shalaia-Song
06. Comme Aux U.S.A.
07. A.I.E. Is My Song
08. Shubidube Love
09. Doudou Rumba
10. Hello Rio
11. Help Get Me Some Help
12. Sing Along With The Juke Box
13. D.I.S.C.O. (French Version)

Лог создания рипа

Exact Audio Copy V0.99 prebeta 5 from 4. May 2009
EAC extraction logfile from 2. August 2011, 20:20
Ottawan / The Best
Used drive : MATSHITADVD-RAM UJ8A0AS Adapter: 1 ID: 0
Read mode : Secure
Utilize accurate stream : Yes
Defeat audio cache : Yes
Make use of C2 pointers : No
Read offset correction : 102
Overread into Lead-In and Lead-Out : No
Fill up missing offset samples with silence : Yes
Delete leading and trailing silent blocks : No
Null samples used in CRC calculations : Yes
Used interface : Native Win32 interface for Win NT & 2000
Used output format : Internal WAV Routines
Sample format : 44.100 Hz; 16 Bit; Stereo
TOC of the extracted CD
Track | Start | Length | Start sector | End sector
---------------------------------------------------------
1 | 0:00.00 | 4:59.33 | 0 | 22457
2 | 4:59.33 | 5:11.36 | 22458 | 45818
3 | 10:10.69 | 4:50.26 | 45819 | 67594
4 | 15:01.20 | 5:27.36 | 67595 | 92155
5 | 20:28.56 | 3:39.15 | 92156 | 108595
6 | 24:07.71 | 3:34.27 | 108596 | 124672
7 | 27:42.23 | 3:28.14 | 124673 | 140286
8 | 31:10.37 | 2:49.56 | 140287 | 153017
9 | 34:00.18 | 3:32.72 | 153018 | 168989
10 | 37:33.15 | 4:26.53 | 168990 | 188992
11 | 41:59.68 | 4:27.56 | 188993 | 209073
12 | 46:27.49 | 4:04.42 | 209074 | 227415
13 | 50:32.16 | 3:33.71 | 227416 | 243461
Range status and errors
Selected range
Filename D:\ Ottawan - The Best - 2006 \Ottawan - The Best.wav
Peak level 100.0 %
Range quality 100.0 %
Copy CRC CEE2C7CD
Copy OK
No errors occurred
AccurateRip summary
Track 1 accurately ripped (confidence 1) [D712C106]
Track 2 accurately ripped (confidence 1) [B33E9535]
Track 3 accurately ripped (confidence 1) [4569E555]
Track 4 accurately ripped (confidence 1) [0A38CECC]
Track 5 accurately ripped (confidence 1) [3D9CD181]
Track 6 accurately ripped (confidence 1) [4505DA5E]
Track 7 accurately ripped (confidence 1) [C93AAB95]
Track 8 accurately ripped (confidence 1) [545A44AA]
Track 9 accurately ripped (confidence 1) [8709D9AC]
Track 10 accurately ripped (confidence 1) [0E0BBADC]
Track 11 accurately ripped (confidence 1) [B5021EE2]
Track 12 accurately ripped (confidence 1) [345856C3]
Track 13 accurately ripped (confidence 1) [604A3B63]
All tracks accurately ripped
End of status report

Содержание индексной карты (.CUE)

REM GENRE Disco
REM DATE 2006
REM DISCID 9A0CAE0D
REM COMMENT "ExactAudioCopy v0.99pb5"
PERFORMER "Ottawan"
TITLE "The Best"
FILE "Ottawan - The Best.flac" WAVE
TRACK 01 AUDIO
TITLE "D.I.S.C.O. (English Version)"
PERFORMER "Ottawan"
INDEX 01 00:00:00
TRACK 02 AUDIO
TITLE "You're O.K. / T'es O.K. (English & French Version)"
PERFORMER "Ottawan"
INDEX 00 04:57:33
INDEX 01 04:59:33
TRACK 03 AUDIO
TITLE "Hands Up (Give Me Your Heart) (Maxi Version)"
PERFORMER "Ottawan"
INDEX 00 10:08:69
INDEX 01 10:10:69
TRACK 04 AUDIO
TITLE "Crazy Music (Maxi Version)"
PERFORMER "Ottawan"
INDEX 00 14:59:20
INDEX 01 15:01:20
TRACK 05 AUDIO
TITLE "Shalaia-Song"
PERFORMER "Ottawan"
INDEX 00 20:26:56
INDEX 01 20:28:56
TRACK 06 AUDIO
TITLE "Comme Aux U.S.A."
PERFORMER "Ottawan"
INDEX 00 24:05:71
INDEX 01 24:07:71
TRACK 07 AUDIO
TITLE "A.I.E. Is My Song"
PERFORMER "Ottawan"
INDEX 00 27:40:23
INDEX 01 27:42:23
TRACK 08 AUDIO
TITLE "Shubidube Love"
PERFORMER "Ottawan"
INDEX 00 31:08:37
INDEX 01 31:10:37
TRACK 09 AUDIO
TITLE "Doudou Rumba"
PERFORMER "Ottawan"
INDEX 00 33:58:18
INDEX 01 34:00:18
TRACK 10 AUDIO
TITLE "Hello Rio"
PERFORMER "Ottawan"
INDEX 00 37:31:15
INDEX 01 37:33:15
TRACK 11 AUDIO
TITLE "Help Get Me Some Help"
PERFORMER "Ottawan"
INDEX 00 41:57:68
INDEX 01 41:59:68
TRACK 12 AUDIO
TITLE "Sing Along With The Juke Box"
PERFORMER "Ottawan"
INDEX 00 46:25:49
INDEX 01 46:27:49
TRACK 13 AUDIO
TITLE "D.I.S.C.O. (French Version)"
PERFORMER "Ottawan"
INDEX 00 50:30:16
INDEX 01 50:32:16

http://www.discogs.com/Ottawan-The-Best/release/6294358
[Торрент-статистика]
[Профиль]  [ЛС] 
Показать сообщения:    
Ответить на тему

Текущее время: Сегодня 06:53

Часовой пояс: GMT + 4



Вы не можете начинать темы
Вы не можете отвечать на сообщения
Вы не можете редактировать свои сообщения
Вы не можете удалять свои сообщения
Вы не можете голосовать в опросах
Вы не можете прикреплять файлы к сообщениям
Вы не можете скачивать файлы