[CD] Ottawan - Greates Hits - 2007, (Disco), FLAC (image+.cue), lossless

Ответить на тему
 
Автор
Сообщение

Admiral ®

Пол:

Стаж: 7 лет 2 месяца

Сообщений: 606

Репутация: 146 [+] [-]

Пост 01-Фев-2015 18:51

[Цитировать] 

--Ottawan - Greates Hits-- Жанр: Disco
Носитель: CD
Год издания: 2007
Страна исполнителя (группы): Germany
Аудиокодек: FLAC (*.flac)
Тип рипа: image+.cue
Битрейт аудио: lossless
Продолжительность: 01:04:17
Источник (релизер): Собственный диск
Наличие сканов в содержимом раздачи: да
Треклист:

01. You're OK (3:29)
02. D.I.S.C.O. (3:21)
03. Hands Up (Give Me Your Heart) (3:33)
04. Crazy Music (3:36)
05. Shalala-Song (3:45)
06. Comme Aux U.S.A. (4:57)
07. A.I.E. Is My Song (3:34)
08. Shubidube Love (2:54)
09. Doudou Rumba (3:39)
10. Hello Rio (4:31)
11. Help Get Me Some Help (3:59)
12. Sing Along With The Juke Box (4:07)
13. Siesta For Two (4:06)
14. Tant Que Durera La Nuit (4:25)
15. T'es OK, T es Bath, T es In (French Version) (3:26)
16. D.I.S.C.O. (French Version) (3:24)
17. Haut Les Mains (French Version) (3:26)

Лог создания рипа

Exact Audio Copy V1.0 beta 3 from 29. August 2011
Отчёт EAC об извлечении, выполненном 15. марта 2012, 18:12
Ottawan / Greatest Hits
Дисковод: Optiarc DVD RW AD-5280S Adapter: 2 ID: 1
Режим чтения : Достоверность
Использование точного потока : Да
Отключение кэша аудио : Да
Использование указателей C2 : Нет
Коррекция смещения при чтении : 48
Способность читать области Lead-in и Lead-out : Нет
Заполнение пропущенных сэмплов тишиной : Да
Удаление блоков с тишиной в начале и конце : Нет
При вычислениях CRC использовались нулевые сэмплы : Да
Интерфейс : Установленный внешний ASPI-интерфейс
Выходной формат : Внутренние WAV-операции
Формат сэмплов : 44.100 Гц; 16 бит; стерео
TOC извлечённого CD
Трек | Старт | Длительность | Начальный сектор | Конечный сектор
---------------------------------------------------------------------
1 | 0:00.00 | 3:28.54 | 0 | 15653
2 | 3:28.54 | 3:20.39 | 15654 | 30692
3 | 6:49.18 | 3:32.44 | 30693 | 46636
4 | 10:21.62 | 3:36.37 | 46637 | 62873
5 | 13:58.24 | 3:44.67 | 62874 | 79740
6 | 17:43.16 | 4:57.19 | 79741 | 102034
7 | 22:40.35 | 3:34.16 | 102035 | 118100
8 | 26:14.51 | 2:54.31 | 118101 | 131181
9 | 29:09.07 | 3:39.22 | 131182 | 147628
10 | 32:48.29 | 4:31.11 | 147629 | 167964
11 | 37:19.40 | 3:58.50 | 167965 | 185864
12 | 41:18.15 | 4:06.66 | 185865 | 204380
13 | 45:25.06 | 4:06.23 | 204381 | 222853
14 | 49:31.29 | 4:25.19 | 222854 | 242747
15 | 53:56.48 | 3:26.31 | 242748 | 258228
16 | 57:23.04 | 3:23.50 | 258229 | 273503
17 | 60:46.54 | 3:26.18 | 273504 | 288971
Характеристики диапазона извлечения и сообщения об ошибках
Выбранный диапазон
Имя файла C:\ Ottawan - Greatest Hits.wav
Пиковый уровень 100.0 %
Скорость извлечения 4.2 X
Качество диапазона 100.0 %
CRC теста BB18EC28
CRC копии BB18EC28
Копирование... OK
Ошибок не произошло
AccurateRip: сводка
Трек 1 отсутствует в базе данных
Трек 2 отсутствует в базе данных
Трек 3 отсутствует в базе данных
Трек 4 отсутствует в базе данных
Трек 5 отсутствует в базе данных
Трек 6 отсутствует в базе данных
Трек 7 отсутствует в базе данных
Трек 8 отсутствует в базе данных
Трек 9 отсутствует в базе данных
Трек 10 отсутствует в базе данных
Трек 11 отсутствует в базе данных
Трек 12 отсутствует в базе данных
Трек 13 отсутствует в базе данных
Трек 14 отсутствует в базе данных
Трек 15 отсутствует в базе данных
Трек 16 отсутствует в базе данных
Трек 17 отсутствует в базе данных
Ни одного трека нет в базе AccurateRip
Конец отчёта
==== Контрольная сумма отчёта 131EFDADB4DEB2FB9F93E7AB928BCD7A955E9CD026F27E97EF888276C3492F0D =

Содержание индексной карты (.CUE)

REM GENRE Disco
REM DATE 2007
REM DISCID DF0F0C11
REM COMMENT "ExactAudioCopy v1.0b3"
PERFORMER "Ottawan"
TITLE "Greatest Hits"
FILE "Ottawan - Greatest Hits.flac" WAVE
TRACK 01 AUDIO
TITLE "You're OK"
PERFORMER "Ottawan"
INDEX 01 00:00:00
TRACK 02 AUDIO
TITLE "D.I.S.C.O."
PERFORMER "Ottawan"
INDEX 00 03:26:54
INDEX 01 03:28:54
TRACK 03 AUDIO
TITLE "Hands Up (Give Me Your Heart)"
PERFORMER "Ottawan"
INDEX 00 06:47:18
INDEX 01 06:49:18
TRACK 04 AUDIO
TITLE "Crazy Music"
PERFORMER "Ottawan"
INDEX 00 10:19:62
INDEX 01 10:21:62
TRACK 05 AUDIO
TITLE "Shalala-Song"
PERFORMER "Ottawan"
INDEX 00 13:56:24
INDEX 01 13:58:24
TRACK 06 AUDIO
TITLE "Comme Aux U.S.A."
PERFORMER "Ottawan"
INDEX 00 17:41:16
INDEX 01 17:43:16
TRACK 07 AUDIO
TITLE "A.I.E. Is My Song"
PERFORMER "Ottawan"
INDEX 00 22:38:35
INDEX 01 22:40:35
TRACK 08 AUDIO
TITLE "Shubidube Love"
PERFORMER "Ottawan"
INDEX 00 26:12:51
INDEX 01 26:14:51
TRACK 09 AUDIO
TITLE "Doudou Rumba"
PERFORMER "Ottawan"
INDEX 00 29:07:07
INDEX 01 29:09:07
TRACK 10 AUDIO
TITLE "Hello Rio"
PERFORMER "Ottawan"
INDEX 00 32:46:29
INDEX 01 32:48:29
TRACK 11 AUDIO
TITLE "Help Get Me Some Help"
PERFORMER "Ottawan"
INDEX 00 37:17:40
INDEX 01 37:19:40
TRACK 12 AUDIO
TITLE "Sing Along With The Juke Box"
PERFORMER "Ottawan"
INDEX 00 41:16:17
INDEX 01 41:18:15
TRACK 13 AUDIO
TITLE "Siesta For Two"
PERFORMER "Ottawan"
INDEX 00 45:23:06
INDEX 01 45:25:06
TRACK 14 AUDIO
TITLE "Tant Que Durera La Nuit"
PERFORMER "Ottawan"
INDEX 00 49:29:29
INDEX 01 49:31:29
TRACK 15 AUDIO
TITLE "T'es OK, T es Bath, T es In (French Version)"
PERFORMER "Ottawan"
INDEX 00 53:54:48
INDEX 01 53:56:48
TRACK 16 AUDIO
TITLE "D.I.S.C.O. (French Version)"
PERFORMER "Ottawan"
INDEX 00 57:21:04
INDEX 01 57:23:04
TRACK 17 AUDIO
TITLE "Haut Les Mains (French Version)"
PERFORMER "Ottawan"
INDEX 00 60:44:54
INDEX 01 60:46:54
[Торрент-статистика]
[Профиль]  [ЛС] 
Показать сообщения:    
Ответить на тему

Текущее время: Сегодня 21:23

Часовой пояс: GMT + 4



Вы не можете начинать темы
Вы не можете отвечать на сообщения
Вы не можете редактировать свои сообщения
Вы не можете удалять свои сообщения
Вы не можете голосовать в опросах
Вы не можете прикреплять файлы к сообщениям
Вы не можете скачивать файлы