[CD] Blue System - Walking On A Rainbow-Hello America - 2000, (Euro-Disco), FLAC (image+.cue), lossless

Ответить на тему
 
Автор
Сообщение

Admiral ®

Пол:

Стаж: 7 лет 2 месяца

Сообщений: 606

Репутация: 146 [+] [-]

Пост 29-Янв-2015 20:32

[Цитировать] 

--Blue System - Walking On A Rainbow-Hello America-- Жанр: Euro-Disco
Носитель: CD
Страна-производитель диска (релиза): Russia
Год издания: 2000
Издатель (лейбл): CD-Maximum
Номер по каталогу: CDM 0900-491
Страна исполнителя (группы): Germany
Аудиокодек: FLAC (*.flac)
Тип рипа: image+.cue
Битрейт аудио: lossless
Продолжительность: 01:16:31
Источник (релизер): собственный рип
Наличие сканов в содержимом раздачи: да
Треклист:

01. Gangster Love
02. Sorry Little Sarah
03. She's A Lady
04. Voodoo Nights
05. Love Me More
06. Emanuelle
07. Big Boys Don't Cry
08. G.T.O.
09. Romeo And Juliet
10. Crossing The River
11. I Will Survive
12. I Like Your Sexy Body
13. Satellite To Satellite
14. Hello America
15. Vampire
16. Wonderful World
17. Heartache No. 9
18. Unfinished Rhapsodie
19. Final

Лог создания рипа

Exact Audio Copy V1.0 beta 3 from 29. August 2011
Отчёт EAC об извлечении, выполненном 24. февраля 2013, 17:14
Blue System / Walking On A Rainbow/Hello America
Дисковод: Optiarc DVD RW AD-5280S Adapter: 0 ID: 2
Режим чтения : Достоверность
Использование точного потока : Да
Отключение кэша аудио : Да
Использование указателей C2 : Нет
Коррекция смещения при чтении : 48
Способность читать области Lead-in и Lead-out : Нет
Заполнение пропущенных сэмплов тишиной : Да
Удаление блоков с тишиной в начале и конце : Нет
При вычислениях CRC использовались нулевые сэмплы : Да
Интерфейс : Установленный внешний ASPI-интерфейс
Выходной формат : Внутренние WAV-операции
Формат сэмплов : 44.100 Гц; 16 бит; стерео
TOC извлечённого CD
Трек | Старт | Длительность | Начальный сектор | Конечный сектор
---------------------------------------------------------------------
1 | 0:00.00 | 4:27.05 | 0 | 20029
2 | 4:27.05 | 5:11.49 | 20030 | 43403
3 | 9:38.54 | 4:58.68 | 43404 | 65821
4 | 14:37.47 | 3:23.36 | 65822 | 81082
5 | 18:01.08 | 4:56.02 | 81083 | 103284
6 | 22:57.10 | 4:19.35 | 103285 | 122744
7 | 27:16.45 | 5:04.68 | 122745 | 145612
8 | 32:21.38 | 3:28.39 | 145613 | 161251
9 | 35:50.02 | 3:47.52 | 161252 | 178328
10 | 39:37.54 | 4:02.44 | 178329 | 196522
11 | 43:40.23 | 3:38.13 | 196523 | 212885
12 | 47:18.36 | 3:26.36 | 212886 | 228371
13 | 50:44.72 | 3:42.59 | 228372 | 245080
14 | 54:27.56 | 3:55.08 | 245081 | 262713
15 | 58:22.64 | 3:36.66 | 262714 | 278979
16 | 61:59.55 | 3:43.26 | 278980 | 295730
17 | 65:43.06 | 3:26.21 | 295731 | 311201
18 | 69:09.27 | 3:20.05 | 311202 | 326206
19 | 72:29.32 | 4:02.06 | 326207 | 344362
Характеристики диапазона извлечения и сообщения об ошибках
Выбранный диапазон
Имя файла D:\Blue System - Walking On A Rainbow,Hello America.wav
Пиковый уровень 100.0 %
Скорость извлечения 4.7 X
Качество диапазона 100.0 %
CRC теста 6DB2D4BA
CRC копии 6DB2D4BA
Копирование... OK
Ошибок не произошло
AccurateRip: сводка
Трек 1 отсутствует в базе данных
Трек 2 отсутствует в базе данных
Трек 3 отсутствует в базе данных
Трек 4 отсутствует в базе данных
Трек 5 отсутствует в базе данных
Трек 6 отсутствует в базе данных
Трек 7 отсутствует в базе данных
Трек 8 отсутствует в базе данных
Трек 9 отсутствует в базе данных
Трек 10 отсутствует в базе данных
Трек 11 отсутствует в базе данных
Трек 12 отсутствует в базе данных
Трек 13 отсутствует в базе данных
Трек 14 отсутствует в базе данных
Трек 15 отсутствует в базе данных
Трек 16 отсутствует в базе данных
Трек 17 отсутствует в базе данных
Трек 18 отсутствует в базе данных
Трек 19 отсутствует в базе данных
Ни одного трека нет в базе AccurateRip
Конец отчёта
==== Контрольная сумма отчёта 201EB826E6921F6654E2A3F13CC6E5B4AF12A11DA7013FFB37299AFC93EA4965 ====

Содержание индексной карты (.CUE)

REM GENRE Disco
REM DATE 2000
REM DISCID 1C11EF13
PERFORMER "Blue System"
TITLE "Walking On A Rainbow | Hello America"
FILE "Blue System - Walking On A Rainbow, Hello America.flac" WAVE
TRACK 01 AUDIO
TITLE "Gangster Love"
PERFORMER "Blue System"
INDEX 01 00:00:00
TRACK 02 AUDIO
TITLE "Sorry Little Sarah"
PERFORMER "Blue System"
INDEX 01 04:27:05
TRACK 03 AUDIO
TITLE "She's A Lady"
PERFORMER "Blue System"
INDEX 01 09:38:54
TRACK 04 AUDIO
TITLE "Voodoo Nights"
PERFORMER "Blue System"
INDEX 01 14:37:47
TRACK 05 AUDIO
TITLE "Love Me More"
PERFORMER "Blue System"
INDEX 01 18:01:08
TRACK 06 AUDIO
TITLE Emanuelle
PERFORMER "Blue System"
INDEX 01 22:57:10
TRACK 07 AUDIO
TITLE "Big Boys Don't Cry"
PERFORMER "Blue System"
INDEX 01 27:16:45
TRACK 08 AUDIO
TITLE G.T.O.
PERFORMER "Blue System"
INDEX 01 32:21:38
TRACK 09 AUDIO
TITLE "Romeo & Juliet"
PERFORMER "Blue System"
INDEX 01 35:50:02
TRACK 10 AUDIO
TITLE "Crossing The River"
PERFORMER "Blue System"
INDEX 01 39:37:54
TRACK 11 AUDIO
TITLE "I Will Survive"
PERFORMER "Blue System"
INDEX 01 43:40:23
TRACK 12 AUDIO
TITLE "I Like Your Sexy Body"
PERFORMER "Blue System"
INDEX 01 47:18:36
TRACK 13 AUDIO
TITLE "Satellite To Satellite"
PERFORMER "Blue System"
INDEX 01 50:44:72
TRACK 14 AUDIO
TITLE "Hello America"
PERFORMER "Blue System"
INDEX 01 54:27:56
TRACK 15 AUDIO
TITLE Vampire
PERFORMER "Blue System"
INDEX 01 58:22:64
TRACK 16 AUDIO
TITLE "Wonderfull World"
PERFORMER "Blue System"
INDEX 01 61:59:55
TRACK 17 AUDIO
TITLE "Heartache No.9"
PERFORMER "Blue System"
INDEX 01 65:43:06
TRACK 18 AUDIO
TITLE "Unfinished Rhapsodie"
PERFORMER "Blue System"
INDEX 01 69:09:27
TRACK 19 AUDIO
TITLE Final
PERFORMER "Blue System"
INDEX 01 72:29:32
[Торрент-статистика]
[Профиль]  [ЛС] 
Показать сообщения:    
Ответить на тему

Текущее время: Сегодня 04:15

Часовой пояс: GMT + 4



Вы не можете начинать темы
Вы не можете отвечать на сообщения
Вы не можете редактировать свои сообщения
Вы не можете удалять свои сообщения
Вы не можете голосовать в опросах
Вы не можете прикреплять файлы к сообщениям
Вы не можете скачивать файлы