[CD] Demis Roussos - Classic - The Universal Masters Collection - 1999, (Pop) ,FLAC (image+.cue), lossless

Ответить на тему
 
Автор
Сообщение

Admiral ®

Пол:

Стаж: 7 лет 2 месяца

Сообщений: 606

Репутация: 146 [+] [-]

Пост 26-Янв-2015 19:28

[Цитировать] 

--Demis Roussos - Classic - The Universal Masters Collection-- Жанр: Pop
Носитель: CD
Страна-производитель диска: EU (Germany)
Год издания: 1999
Издатель (лейбл): Mercury Records
Номер по каталогу: 545 393-2
Страна исполнителя (группы): Greece
Аудиокодек: FLAC (*.flac)
Тип рипа: image+.cue
Битрейт аудио: lossless
Продолжительность: 00:58:21
Наличие сканов в содержимом раздачи: да
Треклист:

01. Happy To Be On An Island In The Sun
02. Forever And Ever
03. Lost In Love
04. My Friend The Wind
05. When Forever Has Gone
06. Someday Somewhere
07. Sing An Ode To Love
08. From Souvenirs To Souvenirs
09. Lovely Lady Of Arcadia
10. Can't Say How Much I Love You
11. My Reason
12. Senora (I Need You)
13. Velvet Mornings
14. My Only Fascination
15. We Shall Dance
16. Goodbye My Love Goodbye
17. Rain And Tears

Отчёт EAC

Exact Audio Copy V1.0 beta 3 from 29. August 2011
EAC extraction logfile from 7. November 2014, 15:21
Demis Roussos / Classic - The Universal Masters Collection
Used drive : HL-DT-STDVDRAM GH22NS40 Adapter: 4 ID: 0
Read mode : Secure
Utilize accurate stream : Yes
Defeat audio cache : Yes
Make use of C2 pointers : No
Read offset correction : 667
Overread into Lead-In and Lead-Out : No
Fill up missing offset samples with silence : Yes
Delete leading and trailing silent blocks : No
Null samples used in CRC calculations : Yes
Used interface : Native Win32 interface for Win NT & 2000
Used output format : User Defined Encoder
Selected bitrate : 1024 kBit/s
Quality : High
Add ID3 tag : No
Command line compressor : C:\Program Files\FLAC\flac.exe
Additional command line options : -V -8 -T "Date=%year%" -T "Genre=%genre%" %source%
TOC of the extracted CD
Track | Start | Length | Start sector | End sector
---------------------------------------------------------
1 | 0:00.00 | 3:08.55 | 0 | 14154
2 | 3:08.55 | 3:35.02 | 14155 | 30281
3 | 6:43.57 | 3:26.70 | 30282 | 45801
4 | 10:10.52 | 3:50.33 | 45802 | 63084
5 | 14:01.10 | 3:03.30 | 63085 | 76839
6 | 17:04.40 | 3:05.17 | 76840 | 90731
7 | 20:09.57 | 4:09.63 | 90732 | 109469
8 | 24:19.45 | 2:34.60 | 109470 | 121079
9 | 26:54.30 | 3:24.00 | 121080 | 136379
10 | 30:18.30 | 2:32.67 | 136380 | 147846
11 | 32:51.22 | 3:59.48 | 147847 | 165819
12 | 36:50.70 | 3:23.37 | 165820 | 181081
13 | 40:14.32 | 3:39.28 | 181082 | 197534
14 | 43:53.60 | 3:44.17 | 197535 | 214351
15 | 47:38.02 | 3:32.53 | 214352 | 230304
16 | 51:10.55 | 3:56.65 | 230305 | 248069
17 | 55:07.45 | 3:13.40 | 248070 | 262584
Range status and errors
Selected range
Filename C:\Program Files\Exact Audio Copy\Demis Roussos - Classic - The Universal Masters Collection.wav
Peak level 87.3 %
Extraction speed 2.0 X
Range quality 100.0 %
Test CRC 9CF481E2
Copy CRC 9CF481E2
Copy OK
No errors occurred
AccurateRip summary
Track 1 accurately ripped (confidence 2) [A4C3E628] (AR v2)
Track 2 accurately ripped (confidence 2) [48D45AC1] (AR v2)
Track 3 accurately ripped (confidence 2) [3D4D87AC] (AR v2)
Track 4 accurately ripped (confidence 2) [E873EE86] (AR v2)
Track 5 accurately ripped (confidence 2) [F4F45046] (AR v2)
Track 6 accurately ripped (confidence 2) [FD38A09D] (AR v2)
Track 7 accurately ripped (confidence 2) [AC41EB20] (AR v2)
Track 8 accurately ripped (confidence 2) [47AB4E15] (AR v2)
Track 9 accurately ripped (confidence 2) [DB10931A] (AR v2)
Track 10 accurately ripped (confidence 2) [0622AE67] (AR v2)
Track 11 accurately ripped (confidence 2) [E0F38097] (AR v1)
Track 12 accurately ripped (confidence 2) [2CCF3D6D] (AR v2)
Track 13 accurately ripped (confidence 2) [21A7E0A7] (AR v2)
Track 14 accurately ripped (confidence 2) [FB77EB02] (AR v2)
Track 15 accurately ripped (confidence 2) [2E241FAC] (AR v2)
Track 16 accurately ripped (confidence 2) [1D4E4BD8] (AR v2)
Track 17 accurately ripped (confidence 2) [8FB36C19] (AR v2)
All tracks accurately ripped
End of status report
==== Log checksum C51989A86D625CDB2984F3326A0F74BAA4AA25A8F3E04478151865D5443056BB ====

Back,Booklet,CD,Matrix

[Торрент-статистика]
[Профиль]  [ЛС] 
Показать сообщения:    
Ответить на тему

Текущее время: Сегодня 19:57

Часовой пояс: GMT + 4



Вы не можете начинать темы
Вы не можете отвечать на сообщения
Вы не можете редактировать свои сообщения
Вы не можете удалять свои сообщения
Вы не можете голосовать в опросах
Вы не можете прикреплять файлы к сообщениям
Вы не можете скачивать файлы