[CD] Robin Gibb - 50 St. Catherine's Drive - 2014, (PopMusic) ,FLAC (image+.cue), lossless

Ответить на тему
 
Автор
Сообщение

Admiral ®

Пол:

Стаж: 7 лет 2 месяца

Сообщений: 606

Репутация: 146 [+] [-]

Пост 29-Дек-2014 10:42

[Цитировать] 

--Robin Gibb - 50 St. Catherine's Drive-- Жанр: PopMusic
Год издания диска: 2014
Издатель (лейбл): Reprise Records Made in EU.
Номер по каталогу: 8122-79578-3
Аудио кодек: FLAC (*.flac)
Тип рипа: image+.cue
Битрейт аудио: lossless
Продолжительность: 01:05:52
Наличие сканов в содержимом раздачи: да
Треклист:
CD: Robin Gibb - 50 St. Catherine's Drive
01. Days Of Wine And Roses - Robin Gibb [0:04:15.33]
02. Instant Love - Robin Gibb [0:04:22.16]
03. Alan Freeman Days - Robin Gibb [0:03:56.57]
04. Wing And A Prayer - Robin Gibb [0:03:29.39]
05. I Am The World - Robin Gibb [0:03:57.13]
06. Mother Of Love - Robin Gibb [0:02:46.23]
07. Anniversary - Robin Gibb [0:03:47.46]
08. Sorry - Robin Gibb [0:04:14.29]
09. Cherish - Robin Gibb [0:03:43.39]
10. Don't Cry Alone - Robin Gibb [0:03:24.04]
11. Avalanche - Robin Gibb [0:03:31.07]
12. One Way Love - Robin Gibb [0:04:05.64]
13. Broken Wings - Robin Gibb [0:04:26.27]
14. Sanctuary - Robin Gibb [0:03:36.23]
15. Solid - Robin Gibb [0:04:26.71]
16. All We Have Is Now - Robin Gibb [0:04:03.38]
17. Sydney - Robin Gibb [0:03:45.30]
Total: 1:05:52.34

back&disc

Отчёт EAC

Exact Audio Copy V1.0 beta 3 from 29. August 2011
EAC extraction logfile from 28. December 2014, 23:33
Robin Gibb / 50 St. Catherine's Drive
Used drive : PLEXTOR DVDR PX-716A Adapter: 0 ID: 0
Read mode : Secure
Utilize accurate stream : Yes
Defeat audio cache : Yes
Make use of C2 pointers : No
Read offset correction : 30
Overread into Lead-In and Lead-Out : Yes
Fill up missing offset samples with silence : Yes
Delete leading and trailing silent blocks : No
Null samples used in CRC calculations : Yes
Used interface : Installed external ASPI interface
Used output format : User Defined Encoder
Selected bitrate : 896 kBit/s
Quality : High
Add ID3 tag : No
Command line compressor : C:\Program Files (x86)\Exact Audio Copy\Flac\flac.exe
Additional command line options : -V -8 -T "Date=%year%" -T "Genre=%genre%" %source%
TOC of the extracted CD
Track | Start | Length | Start sector | End sector
---------------------------------------------------------
1 | 0:00.00 | 4:15.33 | 0 | 19157
2 | 4:15.33 | 4:22.16 | 19158 | 38823
3 | 8:37.49 | 3:56.57 | 38824 | 56580
4 | 12:34.31 | 3:29.39 | 56581 | 72294
5 | 16:03.70 | 3:57.13 | 72295 | 90082
6 | 20:01.08 | 2:46.23 | 90083 | 102555
7 | 22:47.31 | 3:47.46 | 102556 | 119626
8 | 26:35.02 | 4:14.29 | 119627 | 138705
9 | 30:49.31 | 3:43.39 | 138706 | 155469
10 | 34:32.70 | 3:24.04 | 155470 | 170773
11 | 37:56.74 | 3:31.07 | 170774 | 186605
12 | 41:28.06 | 4:05.64 | 186606 | 205044
13 | 45:33.70 | 4:26.27 | 205045 | 225021
14 | 50:00.22 | 3:36.23 | 225022 | 241244
15 | 53:36.45 | 4:26.71 | 241245 | 261265
16 | 58:03.41 | 4:03.38 | 261266 | 279528
17 | 62:07.04 | 3:45.30 | 279529 | 296433
Range status and errors
Selected range
Filename E:\Robin Gibb - 50 St. Catherine`s Drive\Robin Gibb - 50 St. Catherine's Drive.wav
Peak level 100.0 %
Extraction speed 8.8 X
Range quality 99.9 %
Test CRC 14A05089
Copy CRC 14A05089
Copy OK
No errors occurred
AccurateRip summary
Track 1 accurately ripped (confidence 9) [B8A79920] (AR v2)
Track 2 accurately ripped (confidence 9) [6164B53C] (AR v2)
Track 3 accurately ripped (confidence 9) [79267DE0] (AR v2)
Track 4 accurately ripped (confidence 9) [4A1466D7] (AR v2)
Track 5 accurately ripped (confidence 9) [5AF73099] (AR v2)
Track 6 accurately ripped (confidence 9) [265749E9] (AR v2)
Track 7 accurately ripped (confidence 9) [924B8CD9] (AR v2)
Track 8 accurately ripped (confidence 9) [F52B2A9E] (AR v2)
Track 9 accurately ripped (confidence 9) [FC155345] (AR v2)
Track 10 accurately ripped (confidence 9) [CB4854F2] (AR v2)
Track 11 accurately ripped (confidence 9) [84D60646] (AR v2)
Track 12 accurately ripped (confidence 9) [BEA7D6A7] (AR v2)
Track 13 accurately ripped (confidence 9) [8DDF095A] (AR v2)
Track 14 accurately ripped (confidence 9) [3B425A72] (AR v2)
Track 15 accurately ripped (confidence 9) [C723EC73] (AR v2)
Track 16 accurately ripped (confidence 9) [9B193A89] (AR v2)
Track 17 accurately ripped (confidence 9) [311F79C6] (AR v2)
All tracks accurately ripped
End of status report
==== Log checksum 1283A23AEA482567FE359C8443F3C07FC6906387892D0662FAB31F5FA8E5AA46 ====
http://www.discogs.com/Robin-Gibb-50-St-Catherines-.../release/6122574
[Торрент-статистика]
[Профиль]  [ЛС] 
Показать сообщения:    
Ответить на тему

Текущее время: Сегодня 14:56

Часовой пояс: GMT + 4



Вы не можете начинать темы
Вы не можете отвечать на сообщения
Вы не можете редактировать свои сообщения
Вы не можете удалять свои сообщения
Вы не можете голосовать в опросах
Вы не можете прикреплять файлы к сообщениям
Вы не можете скачивать файлы