[CD] Modern Talking - Maxi-Singles Collection - 2001, (Synth-pop, Euro House, Disco), FLAC (image+.cue), lossless

Ответить на тему
 
Автор
Сообщение

Admiral ®

Пол:

Стаж: 7 лет 2 месяца

Сообщений: 606

Репутация: 146 [+] [-]

Пост 19-Ноя-2014 16:21

[Цитировать] 

--Modern Talking - Maxi-Singles Collection-- Жанр: EuroDisco
Носитель: CD
Страна-производитель диска: Russia
Год издания: 2001
Издатель (лейбл): Unofficial Release
Номер по каталогу: 74321 200149
Страна исполнителя: Germany
Аудиокодек: FLAC (*.flac)
Тип рипа: image+.cue
Битрейт аудио: lossless
Продолжительность: 01:17:53
Наличие сканов в содержимом раздачи: да
Треклист:

01. You're My Heart, You're My Soul (Ultra Long Version) 7:20
02. You Can Win If You Want (Special Dance Version) 5:16
03. Cheri, Cheri Lady (Special Dance Version) 4:45
04. Brother Louie (Long Version) 5:18
05. Atlantis Is Calling (S.O.S. For Love) (Extended Version) 5:19
06. Geronimo's Cadillac (Long Vocal Version) 4:54
07. Jet Airliner (Fasten-Seat-Belt-Mix) 5:51
08. In 100 Years... (Long Version - Future Mix) 6:37
09. China In Her Eyes (Remix) 4:24
10. Don't Take Away My Heart (New Vocal Version) 3:53
11. You Are Not Alone (Vocal Version - Radio Edit) 3:40
12. Sexy Sexy Lover (Vocal Version) 3:30
13. No Face No Name No Number (Digital Records Ultra Long Master Mix) 6:10
14. Win The Race (Winners Mix) 3:34

Отчёт EAC

Exact Audio Copy V1.0 beta 3 from 29. August 2011
Отчёт EAC об извлечении, выполненном 18. ноября 2014, 21:01
Modern Talking / Maxi-Singles Collection
Дисковод: Optiarc DVD RW AD-7201A Adapter: 0 ID: 1
Режим чтения : Достоверность
Использование точного потока : Да
Отключение кэша аудио : Да
Использование указателей C2 : Нет
Коррекция смещения при чтении : 48
Способность читать области Lead-in и Lead-out : Нет
Заполнение пропущенных сэмплов тишиной : Да
Удаление блоков с тишиной в начале и конце : Нет
При вычислениях CRC использовались нулевые сэмплы : Да
Интерфейс : Встроенный Win32-интерфейс для Win NT/2000
Выходной формат : Пользовательский кодировщик
Выбранный битрейт : 128 kBit/s
Качество : Высокий
Добавление ID3-тега : Нет
Утилита сжатия : C:\Program Files\FLAC\flac.exe
Дополнительные параметры : -V -8 -T "Date=%year%" -T "Genre=%genre%" %source%
TOC извлечённого CD
Трек | Старт | Длительность | Начальный сектор | Конечный сектор
---------------------------------------------------------------------
1 | 0:00.00 | 7:20.65 | 0 | 33064
2 | 7:20.65 | 5:16.48 | 33065 | 56812
3 | 12:37.38 | 4:45.69 | 56813 | 78256
4 | 17:23.32 | 5:18.61 | 78257 | 102167
5 | 22:42.18 | 5:19.46 | 102168 | 126138
6 | 28:01.64 | 4:54.67 | 126139 | 148255
7 | 32:56.56 | 5:51.66 | 148256 | 174646
8 | 38:48.47 | 6:37.65 | 174647 | 204486
9 | 45:26.37 | 4:24.05 | 204487 | 224291
10 | 49:50.42 | 3:53.68 | 224292 | 241834
11 | 53:44.35 | 3:40.55 | 241835 | 258389
12 | 57:25.15 | 3:32.62 | 258390 | 274351
13 | 60:58.02 | 6:10.70 | 274352 | 302171
14 | 67:08.72 | 3:35.08 | 302172 | 318304
15 | 70:44.05 | 3:31.28 | 318305 | 334157
16 | 74:15.33 | 3:37.45 | 334158 | 350477
17 | 77:53.03 | 1:48.15 | 350478 | 358592
Характеристики диапазона извлечения и сообщения об ошибках
Выбранный диапазон
Имя файла C:\Rips\Modern Talking - Maxi-Singles Collection.wav
Пиковый уровень 100.0 %
Скорость извлечения 4.4 X
Качество диапазона 100.0 %
CRC теста 87D5C860
CRC копии 87D5C860
Копирование... OK
Ошибок не произошло
AccurateRip: сводка
Трек 1 : извлечено точно (доверие 1) [41F9A673] (AR v1)
Трек 2 : извлечено точно (доверие 1) [8EE9F206] (AR v1)
Трек 3 : извлечено точно (доверие 1) [3AFD0D1A] (AR v1)
Трек 4 : извлечено точно (доверие 1) [4E166719] (AR v1)
Трек 5 : извлечено точно (доверие 1) [01367BBD] (AR v1)
Трек 6 : извлечено точно (доверие 1) [D33CCE57] (AR v1)
Трек 7 : извлечено точно (доверие 1) [BD020FAC] (AR v1)
Трек 8 : извлечено точно (доверие 1) [9CB1ADE3] (AR v1)
Трек 9 : извлечено точно (доверие 1) [BE9B333E] (AR v1)
Трек 10 : извлечено точно (доверие 1) [90591375] (AR v1)
Трек 11 : извлечено точно (доверие 1) [5C2A79F8] (AR v1)
Трек 12 : извлечено точно (доверие 1) [F435A98D] (AR v1)
Трек 13 : извлечено точно (доверие 1) [9227B2EB] (AR v1)
Трек 14 : извлечено точно (доверие 1) [2BEC4FC8] (AR v1)
Трек 15 отсутствует в базе данных
Трек 16 отсутствует в базе данных
Трек 17 отсутствует в базе данных
14 трек(и) скопированы точно
3 трек(и) не содержатся в базе AccurateRip
Некоторые треки не прошли проверку на точность
Конец отчёта
==== Контрольная сумма отчёта D2B4A42404D0B505DFDF0C030BEF920B1270AB9C731618D63261C29CA6958E0C ====
Выложено по просьбам трудящихся-интерес представляют пару треков-тайминги и треклист согласно обложкам-AccurateRip и базы определили 14 треков-остальное просто дописка-пиратка она и есть пиратка
You're My Heart, You're My Soul (Ultra Long Version) 07:20,выходил на сингле в Бразилии (CD end Vinyl)
[Торрент-статистика]
[Профиль]  [ЛС] 
Показать сообщения:    
Ответить на тему

Текущее время: Сегодня 21:10

Часовой пояс: GMT + 4



Вы не можете начинать темы
Вы не можете отвечать на сообщения
Вы не можете редактировать свои сообщения
Вы не можете удалять свои сообщения
Вы не можете голосовать в опросах
Вы не можете прикреплять файлы к сообщениям
Вы не можете скачивать файлы