[CD] VA - ZYX Disco Collection (2CD) - 2012, (Italo-Disco, Euro House), FLAC (image+.cue), lossless

Ответить на тему
 
Автор
Сообщение

Admiral ®

Пол:

Стаж: 7 лет 2 месяца

Сообщений: 606

Репутация: 146 [+] [-]

Пост 09-Ноя-2014 18:19

[Цитировать] 

--Various Artists - ZYX Disco Collection (2CD)-- Жанр: Italo-Disco, Euro House
Носитель: CD
Страна-производитель диска: Germany
Год выпуска диска: 2012
Дата выхода оригинального издания: 2012
Тип издания: 2CD, Compilation
Издатель (лейбл): ZYX Music
Каталожный номер: ZYX 82607-2
Аудиокодек: FLAC (*.flac)
Тип рипа: image+.cue
Битрейт аудио: lossless
Продолжительность: 02:29:48
Наличие сканов в содержимом раздачи: да, PNG 600dpi

Disc 1

Треклист
01. Den Harrow - Future Brain (Extended Version) [05:27]
02. Dresden China - Fire And Rain (Maxi Single Version) [06:07]
03. The Twins - Not The Loving Kind (Extended Version) [06:58]
04. Erasure - Ship Of Fools (Shiver Me Timbers Mix) [07:51]
05. Ultravox - Dancing With Tears In My Eyes (Special Remix) [04:05]
06. Yazoo - Nobody's Diary (Extended Version) [06:09]
07. Laid Back - White Horse (U S Edit) [05:47]
08. Kano - Queen Of Witches (Extended) [06:12]
09. Bad Boys Blue - Kisses & Tears (My One And Only) [05:01]
10. Ice MC - It's A Rainy Day (Euro Club Mix) [06:51]
11. Double You - Dancing With An Angel (Angel Mix) [07:48]
12. P Lion - Happy Children (Vocal) [05:59]
Продолжительность: 01:14:23

EAC

Exact Audio Copy V1.0 beta 3 from 29. August 2011
Отчёт EAC об извлечении, выполненном 6. ноября 2014, 23:21
Various / ZYX Disco Collection (ZYX 82607-2) - Disc 1
Дисковод: PIONEER BD-RW BDR-206 Adapter: 1 ID: 1
Режим чтения : Достоверность
Использование точного потока : Да
Отключение кэша аудио : Да
Использование указателей C2 : Нет
Коррекция смещения при чтении : 667
Способность читать области Lead-in и Lead-out : Нет
Заполнение пропущенных сэмплов тишиной : Да
Удаление блоков с тишиной в начале и конце : Нет
При вычислениях CRC использовались нулевые сэмплы : Да
Интерфейс : Установленный внешний ASPI-интерфейс
Выходной формат : Пользовательский кодировщик
Выбранный битрейт : 1024 kBit/s
Качество : Высокий
Добавление ID3-тега : Нет
Утилита сжатия : C:\Program Files (x86)\Exact Audio Copy\FLAC\FLAC.EXE
Дополнительные параметры : -T "COMMENT=Ripped by SergeyJD"-8 -V -T "ARTIST=%artist%" -T "TITLE=%title%" -T "ALBUM=%albumtitle%" -T "DATE=%year%" -T "TRACKNUMBER=%tracknr%" -T "GENRE=%genre%" -T "COMMENT=%comment%" -T "BAND=%albuminterpret%" -T "ALBUMARTIST=%albuminterpret%" -T "COMPOSER=%composer%" %haslyrics%--tag-from-file=LYRICS="%lyricsfile%"%haslyrics% -T "DISCNUMBER=%cdnumber%" -T "TOTALDISCS=%totalcds%" -T "TOTALTRACKS=%numtracks%" %hascover%--picture="%coverfile%"%hascover% %source% -o %dest%
TOC извлечённого CD
Трек | Старт | Длительность | Начальный сектор | Конечный сектор
---------------------------------------------------------------------
1 | 0:00.00 | 5:27.22 | 0 | 24546
2 | 5:27.22 | 6:07.44 | 24547 | 52115
3 | 11:34.66 | 6:58.53 | 52116 | 83518
4 | 18:33.44 | 7:51.05 | 83519 | 118848
5 | 26:24.49 | 4:05.74 | 118849 | 137297
6 | 30:30.48 | 6:09.13 | 137298 | 164985
7 | 36:39.61 | 5:47.74 | 164986 | 191084
8 | 42:27.60 | 6:12.67 | 191085 | 219051
9 | 48:40.52 | 5:01.73 | 219052 | 241699
10 | 53:42.50 | 6:51.63 | 241700 | 272587
11 | 60:34.38 | 7:48.59 | 272588 | 307746
12 | 68:23.22 | 5:59.70 | 307747 | 334741
Характеристики диапазона извлечения и сообщения об ошибках
Выбранный диапазон
Имя файла D:\VA - ZYX Disco Collection (2CD, ZYX 82607-2) - 2012\Disc 1\Various - ZYX Disco Collection (ZYX 82607-2) - Disc 1.wav
Пиковый уровень 98.8 %
Скорость извлечения 2.1 X
Качество диапазона 100.0 %
CRC теста C90EF364
CRC копии C90EF364
Копирование... OK
Ошибок не произошло
AccurateRip: сводка
Трек 1 : извлечено точно (доверие 1) [5F6F6AEE] (AR v2)
Трек 2 : извлечено точно (доверие 1) [EC05A1C8] (AR v2)
Трек 3 : извлечено точно (доверие 1) [3C0FC306] (AR v2)
Трек 4 : извлечено точно (доверие 1) [8D3D01AA] (AR v2)
Трек 5 : извлечено точно (доверие 1) [17978817] (AR v2)
Трек 6 : извлечено точно (доверие 1) [BD474D9B] (AR v2)
Трек 7 : извлечено точно (доверие 1) [8243D101] (AR v2)
Трек 8 : извлечено точно (доверие 1) [DDDCD2D9] (AR v2)
Трек 9 : извлечено точно (доверие 1) [D184CBF4] (AR v2)
Трек 10 : извлечено точно (доверие 1) [427D27D6] (AR v2)
Трек 11 : извлечено точно (доверие 1) [84FD38A8] (AR v2)
Трек 12 : извлечено точно (доверие 1) [08D31018] (AR v2)
Все треки извлечены точно
Конец отчёта
---- CUETools DB Plugin V2.1.4
[CTDB TOCID: UHoasurPQ_DJQfS.uOGA2dvaaS0-] found
Submit result: UHoasurPQ_DJQfS.uOGA2dvaaS0- has been confirmed
Track | CTDB Status
1 | (1/1) Accurately ripped
2 | (1/1) Accurately ripped
3 | (1/1) Accurately ripped
4 | (1/1) Accurately ripped
5 | (1/1) Accurately ripped
6 | (1/1) Accurately ripped
7 | (1/1) Accurately ripped
8 | (1/1) Accurately ripped
9 | (1/1) Accurately ripped
10 | (1/1) Accurately ripped
11 | (1/1) Accurately ripped
12 | (1/1) Accurately ripped
==== Контрольная сумма отчёта 3198000A6778DDBBD35FB8E024FA7456ACB03F51751D3BF068ADAF5F7BDA60C6 ====

Disc 2

Треклист
01. Talk Talk - It's My Life (Extended Mix) [06:19]
02. Orchestral Manoeuvres In The Dark - If You Leave (Extended Version) [06:05]
03. Tullio De Piscopo - Stop Bajon (Club Remix) [04:58]
04. Silent Circle - Oh, Don't Lose Your Heart Tonight (Maxi Version) [05:51]
05. Taffy - I Love My Radio (US-Remix) [07:07]
06. Gigi D'agostino - New Year's Day (Extended) [07:58]
07. Fancy - Lady Of Ice [04:36]
08. Alexia - Me And You (Extended Euromix) [06:49]
09. MC Sar & The Real McCoy - It's On You (Extended Mix) [05:45]
10. Mike Cannon - Goin' Crazy (Mix Vox) [06:23]
11. The Soundlovers - Surrender (Birretta Mix) [05:57]
12. Ryan Paris - Dolce Vita (Vocal) [07:31]
Продолжительность: 01:15:25

EAC

Exact Audio Copy V1.0 beta 3 from 29. August 2011
Отчёт EAC об извлечении, выполненном 6. ноября 2014, 23:43
Various / ZYX Disco Collection (ZYX 82607-2) - Disc 2
Дисковод: PIONEER BD-RW BDR-206 Adapter: 1 ID: 1
Режим чтения : Достоверность
Использование точного потока : Да
Отключение кэша аудио : Да
Использование указателей C2 : Нет
Коррекция смещения при чтении : 667
Способность читать области Lead-in и Lead-out : Нет
Заполнение пропущенных сэмплов тишиной : Да
Удаление блоков с тишиной в начале и конце : Нет
При вычислениях CRC использовались нулевые сэмплы : Да
Интерфейс : Установленный внешний ASPI-интерфейс
Выходной формат : Пользовательский кодировщик
Выбранный битрейт : 1024 kBit/s
Качество : Высокий
Добавление ID3-тега : Нет
Утилита сжатия : C:\Program Files (x86)\Exact Audio Copy\FLAC\FLAC.EXE
Дополнительные параметры : -T "COMMENT=Ripped by SergeyJD"-8 -V -T "ARTIST=%artist%" -T "TITLE=%title%" -T "ALBUM=%albumtitle%" -T "DATE=%year%" -T "TRACKNUMBER=%tracknr%" -T "GENRE=%genre%" -T "COMMENT=%comment%" -T "BAND=%albuminterpret%" -T "ALBUMARTIST=%albuminterpret%" -T "COMPOSER=%composer%" %haslyrics%--tag-from-file=LYRICS="%lyricsfile%"%haslyrics% -T "DISCNUMBER=%cdnumber%" -T "TOTALDISCS=%totalcds%" -T "TOTALTRACKS=%numtracks%" %hascover%--picture="%coverfile%"%hascover% %source% -o %dest%
TOC извлечённого CD
Трек | Старт | Длительность | Начальный сектор | Конечный сектор
---------------------------------------------------------------------
1 | 0:00.00 | 6:19.23 | 0 | 28447
2 | 6:19.23 | 6:05.36 | 28448 | 55858
3 | 12:24.59 | 4:58.71 | 55859 | 78279
4 | 17:23.55 | 5:51.48 | 78280 | 104652
5 | 23:15.28 | 7:07.48 | 104653 | 136725
6 | 30:23.01 | 7:58.19 | 136726 | 172594
7 | 38:21.20 | 4:36.11 | 172595 | 193305
8 | 42:57.31 | 6:49.18 | 193306 | 223998
9 | 49:46.49 | 5:45.22 | 223999 | 249895
10 | 55:31.71 | 6:23.50 | 249896 | 278670
11 | 61:55.46 | 5:57.57 | 278671 | 305502
12 | 67:53.28 | 7:31.67 | 305503 | 339394
Характеристики диапазона извлечения и сообщения об ошибках
Выбранный диапазон
Имя файла D:\VA - ZYX Disco Collection (2CD, ZYX 82607-2) - 2012\Disc 2\Various - ZYX Disco Collection (ZYX 82607-2) - Disc 2.wav
Пиковый уровень 98.8 %
Скорость извлечения 8.4 X
Качество диапазона 100.0 %
CRC теста 1BB9890C
CRC копии 1BB9890C
Копирование... OK
Ошибок не произошло
AccurateRip: сводка
Трек 1 : извлечено точно (доверие 1) [97A21D4D] (AR v2)
Трек 2 : извлечено точно (доверие 1) [4A20647F] (AR v2)
Трек 3 : извлечено точно (доверие 1) [D17A2D09] (AR v2)
Трек 4 : извлечено точно (доверие 1) [0F8F95A8] (AR v2)
Трек 5 : извлечено точно (доверие 1) [F214F21F] (AR v2)
Трек 6 : извлечено точно (доверие 1) [2F632BA4] (AR v2)
Трек 7 : извлечено точно (доверие 1) [D4391AE8] (AR v2)
Трек 8 : извлечено точно (доверие 1) [9A180332] (AR v2)
Трек 9 : извлечено точно (доверие 1) [913E7923] (AR v2)
Трек 10 : извлечено точно (доверие 1) [7FDB32AB] (AR v2)
Трек 11 : извлечено точно (доверие 1) [7179FFF4] (AR v2)
Трек 12 : извлечено точно (доверие 1) [E37FB99A] (AR v2)
Все треки извлечены точно
Конец отчёта
---- CUETools DB Plugin V2.1.4
[CTDB TOCID: 991bHbYAMcpIJt.uS2.3tAyAhgs-] found
Submit result: 991bHbYAMcpIJt.uS2.3tAyAhgs- has been confirmed
Track | CTDB Status
1 | (1/1) Accurately ripped
2 | (1/1) Accurately ripped
3 | (1/1) Accurately ripped
4 | (1/1) Accurately ripped
5 | (1/1) Accurately ripped
6 | (1/1) Accurately ripped
7 | (1/1) Accurately ripped
8 | (1/1) Accurately ripped
9 | (1/1) Accurately ripped
10 | (1/1) Accurately ripped
11 | (1/1) Accurately ripped
12 | (1/1) Accurately ripped
==== Контрольная сумма отчёта D602BCBFE67E28210074592F78FAFA12EFA421F7A55665B2976EE302245C5949 ====

http://www.discogs.com/Various-ZYX-Disco-Collection/release/3927876
[Торрент-статистика]
[Профиль]  [ЛС] 
Показать сообщения:    
Ответить на тему

Текущее время: Сегодня 15:32

Часовой пояс: GMT + 4



Вы не можете начинать темы
Вы не можете отвечать на сообщения
Вы не можете редактировать свои сообщения
Вы не можете удалять свои сообщения
Вы не можете голосовать в опросах
Вы не можете прикреплять файлы к сообщениям
Вы не можете скачивать файлы