Владимир Маркин - Трудное детство - 1995, (Pop), FLAC (image+.cue), lossless

Ответить на тему
 
Автор
Сообщение

renta23 ®

Пол:

Стаж: 6 лет 6 месяцев

Сообщений: 42

Репутация: 39 [+] [-]

Откуда: Брянск

Пост 05-Сен-2014 18:47

[Цитировать] 

Владимир Маркин - Трудное детство--- Жанр: Pop
Страна-производитель диска: Россия
Год издания: 1995
Аудиокодек: FLAC (*.flac)
Тип рипа: image+.cue
Битрейт аудио: lossless
Продолжительность: 00:54:11
Источник (релизер): renta23
Наличие сканов в содержимом раздачи: да--Треклист:
01. В доме восемь...
02. Плакала девчонка
03. Я готов целовать...
04. Ресторанный блюз
05. Мастерская
06. Сиреневый туман
07. Грустный твист
08. Девчонка - невидимка
09. Канарик
10. Домовой
11. Казино
12. Царевна - несмеяна
13. Белая черемуха
14. Лучина
15. Колокола
16. Этот двор
--

Лог создания рипа

Exact Audio Copy V1.0 beta 3 from 29. August 2011
Отчёт EAC об извлечении, выполненном 31. августа 2014, 1:19
Владимир Маркин / Трудное детство
Дисковод: PIONEER BD-RW BDR-S09 Adapter: 0 ID: 3
Режим чтения : Достоверность
Использование точного потока : Да
Отключение кэша аудио : Да
Использование указателей C2 : Нет
Коррекция смещения при чтении : 667
Способность читать области Lead-in и Lead-out : Нет
Заполнение пропущенных сэмплов тишиной : Да
Удаление блоков с тишиной в начале и конце : Нет
При вычислениях CRC использовались нулевые сэмплы : Да
Интерфейс : Встроенный Win32-интерфейс для Win NT/2000
Выходной формат : Пользовательский кодировщик
Выбранный битрейт : 768 kBit/s
Качество : Высокий
Добавление ID3-тега : Нет
Утилита сжатия : C:\Program Files\Exact Audio Copy\FLAC\FLAC.EXE
Дополнительные параметры : -6 -V -T "ARTIST=%artist%" -T "TITLE=%title%" -T "ALBUM=%albumtitle%" -T "DATE=%year%" -T "TRACKNUMBER=%tracknr%" -T "GENRE=%genre%" -T "COMMENT=%comment%" -T "BAND=%albuminterpret%" -T "ALBUMARTIST=%albuminterpret%" -T "COMPOSER=%composer%" %haslyrics%--tag-from-file=LYRICS="%lyricsfile%"%haslyrics% -T "DISCNUMBER=%cdnumber%" -T "TOTALDISCS=%totalcds%" -T "TOTALTRACKS=%numtracks%" %hascover%--picture="%coverfile%"%hascover% %source% -o %dest%
TOC извлечённого CD
Трек | Старт | Длительность | Начальный сектор | Конечный сектор
---------------------------------------------------------------------
1 | 0:00.00 | 3:03.22 | 0 | 13746
2 | 3:03.22 | 2:43.73 | 13747 | 26044
3 | 5:47.20 | 2:24.65 | 26045 | 36909
4 | 8:12.10 | 3:47.57 | 36910 | 53991
5 | 11:59.67 | 3:47.40 | 53992 | 71056
6 | 15:47.32 | 3:37.68 | 71057 | 87399
7 | 19:25.25 | 4:33.22 | 87400 | 107896
8 | 23:58.47 | 4:12.50 | 107897 | 126846
9 | 28:11.22 | 2:57.20 | 126847 | 140141
10 | 31:08.42 | 4:23.63 | 140142 | 159929
11 | 35:32.30 | 2:11.25 | 159930 | 169779
12 | 37:43.55 | 3:06.05 | 169780 | 183734
13 | 40:49.60 | 2:41.22 | 183735 | 195831
14 | 43:31.07 | 2:52.00 | 195832 | 208731
15 | 46:23.07 | 4:35.05 | 208732 | 229361
16 | 50:58.12 | 3:13.48 | 229362 | 243884
Характеристики диапазона извлечения и сообщения об ошибках
Выбранный диапазон
Имя файла F:\EAC\Владимир Маркин - Трудное детство.wav
Пиковый уровень 93.2 %
Скорость извлечения 4.9 X
Качество диапазона 100.0 %
CRC теста 6EE05316
CRC копии 6EE05316
Копирование... OK
Ошибок не произошло
AccurateRip: сводка
Трек 1 точность не определена (достоверность 3) [A57E972B], AccurateRip вернул [EC39BB4D] (AR v2)
Трек 2 точность не определена (достоверность 3) [9AC9F34C], AccurateRip вернул [07CF0EB7] (AR v2)
Трек 3 точность не определена (достоверность 3) [1998FA47], AccurateRip вернул [10F5BF68] (AR v2)
Трек 4 точность не определена (достоверность 3) [DCB16463], AccurateRip вернул [3AB8C751] (AR v2)
Трек 5 точность не определена (достоверность 3) [F7E8D577], AccurateRip вернул [DACF6DAB] (AR v2)
Трек 6 точность не определена (достоверность 3) [D608582D], AccurateRip вернул [B4AD8834] (AR v2)
Трек 7 точность не определена (достоверность 3) [353CEF5B], AccurateRip вернул [B81BC9FD] (AR v2)
Трек 8 точность не определена (достоверность 3) [3FA15351], AccurateRip вернул [C391B7F2] (AR v2)
Трек 9 точность не определена (достоверность 3) [8D0481CC], AccurateRip вернул [0CF3F10D] (AR v2)
Трек 10 точность не определена (достоверность 3) [C9A9D052], AccurateRip вернул [65349B81] (AR v2)
Трек 11 точность не определена (достоверность 3) [E20E58E4], AccurateRip вернул [C0A99E90] (AR v2)
Трек 12 точность не определена (достоверность 3) [16060A16], AccurateRip вернул [C97FD3C3] (AR v2)
Трек 13 точность не определена (достоверность 3) [01A47A8C], AccurateRip вернул [338A2239] (AR v2)
Трек 14 точность не определена (достоверность 3) [FBD95811], AccurateRip вернул [161483A3] (AR v2)
Трек 15 точность не определена (достоверность 3) [4A06567A], AccurateRip вернул [E346AECC] (AR v2)
Трек 16 точность не определена (достоверность 3) [E2AC076A], AccurateRip вернул [097F4962] (AR v2)
Ни один трек не прошёл проверки на точность
В вашей базе может быть иной вариант штамповки диска
Конец отчёта

Содержание индексной карты (.CUE)

REM GENRE Pop-Folk
REM DATE 1995
REM DISCID DC0CB310
REM COMMENT "ExactAudioCopy v1.0b3"
PERFORMER "Владимир Маркин"
TITLE "Трудное детство"
FILE "Владимир Маркин - Трудное детство.flac" WAVE
TRACK 01 AUDIO
TITLE "В доме восемь..."
PERFORMER "Владимир Маркин"
INDEX 01 00:00:00
TRACK 02 AUDIO
TITLE "Плакала девчонка"
PERFORMER "Владимир Маркин"
INDEX 01 03:03:22
TRACK 03 AUDIO
TITLE "Я готов целовать..."
PERFORMER "Владимир Маркин"
INDEX 01 05:47:20
TRACK 04 AUDIO
TITLE "Ресторанный блюз"
PERFORMER "Владимир Маркин"
INDEX 01 08:12:10
TRACK 05 AUDIO
TITLE "Мастерская"
PERFORMER "Владимир Маркин"
INDEX 01 11:59:67
TRACK 06 AUDIO
TITLE "Сиреневый туман"
PERFORMER "Владимир Маркин"
INDEX 01 15:47:32
TRACK 07 AUDIO
TITLE "Грустный твист"
PERFORMER "Владимир Маркин"
INDEX 01 19:25:25
TRACK 08 AUDIO
TITLE "Девчонка - невидимка"
PERFORMER "Владимир Маркин"
INDEX 01 23:58:47
TRACK 09 AUDIO
TITLE "Канарик"
PERFORMER "Владимир Маркин"
INDEX 01 28:11:22
TRACK 10 AUDIO
TITLE "Домовой"
PERFORMER "Владимир Маркин"
INDEX 01 31:08:42
TRACK 11 AUDIO
TITLE "Казино"
PERFORMER "Владимир Маркин"
INDEX 01 35:32:30
TRACK 12 AUDIO
TITLE "Царевна - несмеяна"
PERFORMER "Владимир Маркин"
INDEX 01 37:43:55
TRACK 13 AUDIO
TITLE "Белая черемуха"
PERFORMER "Владимир Маркин"
INDEX 01 40:49:60
TRACK 14 AUDIO
TITLE "Лучина"
PERFORMER "Владимир Маркин"
INDEX 01 43:31:07
TRACK 15 AUDIO
TITLE "Колокола"
PERFORMER "Владимир Маркин"
INDEX 01 46:23:07
TRACK 16 AUDIO
TITLE "Этот двор"
PERFORMER "Владимир Маркин"
INDEX 01 50:58:12
[Торрент-статистика]
[Профиль]  [ЛС] 
Показать сообщения:    
Ответить на тему

Текущее время: Сегодня 04:12

Часовой пояс: GMT + 4



Вы не можете начинать темы
Вы не можете отвечать на сообщения
Вы не можете редактировать свои сообщения
Вы не можете удалять свои сообщения
Вы не можете голосовать в опросах
Вы не можете прикреплять файлы к сообщениям
Вы не можете скачивать файлы