Chilly - Discography (4CD) - 2011, (Disco), FLAC (image+cue), lossless

Ответить на тему
 
Автор
Сообщение

Admiral ®

Пол:

Стаж: 7 лет 2 месяца

Сообщений: 606

Репутация: 146 [+] [-]

Пост 31-Авг-2014 21:44

[Цитировать] 

--Polydor Discography 2011-- Исполнитель: Chilly
Жанр: Disco
Дата выпуска альбомов: 1978 - 1982
Дата выпуска дисков: 2011
Лейбл: Polydor
Страна - производитель дисков: West Germany
Формат: FLAC (image+cue)
Битрейт: lossless
Продолжительность: 4 CD, 02:35:07

01 - For Your Love

Исполнитель: Chilly
Альбом: For Your Love
Жанр: Eurodance, Disco
Дата выпуска альбома: 1978
Номер по каталогу: 817122-1
Лейбл: Polydor
Формат: FLAC (image+cue)
Битрейт: lossless
Продолжительность: 00:39:33
Треклист:

01. For Your Love And For Your Love Suite [00:11:51]
02. Better Stop [00:03:40]
03. Dance With Me [00:04:37]
04. C'mon Baby [00:03:09]
05. Key Of Love [00:03:06]
06. Sensation [00:02:45]
07. Love Love Love [00:02:52]
Bonus Tracks:
08. Goo Goo Eyes [00:04:36]
09. Rosi Rise [00:02:52]

Отчёт EAC

Exact Audio Copy V0.99 prebeta 5 from 4. May 2009
Отчёт EAC об извлечении, выполненном 18. марта 2011, 20:46
Chilly / For Your Love
Дисковод: Optiarc DVD RW AD-7203A Adapter: 1 ID: 0
Режим чтения : Достоверность
Использование точного потока : Да
Отключение кэша аудио : Да
Использование указателей C2 : Нет
Коррекция смещения при чтении : 48
Способность читать области Lead-in и Lead-out : Нет
Заполнение пропущенных сэмплов тишиной : Да
Удаление блоков с тишиной в начале и конце : Нет
При вычислениях CRC использовались нулевые сэмплы : Да
Интерфейс : Встроенный Win32-интерфейс для Win NT/2000
Выходной формат : Пользовательский кодировщик
Выбранный битрейт : 1024 kBit/s
Качество : Высокий
Добавление ID3-тэга : Да
Утилита сжатия : C:\Program Files\Exact Audio Copy\FLAC\FLAC.EXE
Дополнительные параметры : -8 -V -T "ARTIST=%a" -T "TITLE=%t" -T "ALBUM=%g" -T "DATE=%y" -T "TRACKNUMBER=%n" -T "GENRE=%m" -T "COMMENT=EAC FLAC -8" %s
TOC извлечённого CD
Трек | Старт | Длительность | Начальный сектор | Конечный сектор
---------------------------------------------------------------------
1 | 0:00.00 | 11:51.40 | 0 | 53364
2 | 11:51.40 | 3:40.45 | 53365 | 69909
3 | 15:32.10 | 4:37.50 | 69910 | 90734
4 | 20:09.60 | 3:09.25 | 90735 | 104934
5 | 23:19.10 | 3:06.45 | 104935 | 118929
6 | 26:25.55 | 2:45.40 | 118930 | 131344
7 | 29:11.20 | 2:52.05 | 131345 | 144249
8 | 32:03.25 | 4:36.55 | 144250 | 165004
9 | 36:40.05 | 2:52.70 | 165005 | 177974
Характеристики диапазона извлечения и сообщения об ошибках
Выбранный диапазон
Имя файла F:\СВОИ РЕЛИЗЫ\Chilly 1978-1982 ''Polydor Discography 2011''\Chilly 1978 ''For Your Love'' Polydor 2011\Chilly - For Your Love.wav
Пиковый уровень 100.0 %
Качество диапазона 100.0 %
CRC теста 9AAF0086
CRC копии 9AAF0086
Копирование... OK
Ошибок не произошло
AccurateRip: сводка
Трек 1 нет в базе данных
Трек 2 нет в базе данных
Трек 3 нет в базе данных
Трек 4 нет в базе данных
Трек 5 нет в базе данных
Трек 6 нет в базе данных
Трек 7 нет в базе данных
Трек 8 нет в базе данных
Трек 9 нет в базе данных
Ни одного трека нет в базе AccurateRip
Конец отчёта

Covers

02 - Come To L.A

Исполнитель: Chilly
Альбом: Come To L.A
Жанр: Eurodance, Disco
Дата выпуска: 1979
Номер по каталогу: 817124-2
Страна: Germany
Лейбл: Polydor
Формат: FLAC (image+cue)
Битрейт: lossless
Продолжительность: 00:40:33
Треклист:

01. Sunshine Of Your Love [00:06:32]
02. HeartattackIn My Cadillac [00:04:14]
03. Sacrifice [00:03:55]
04. Come To L.A. [00:03:30]
05. Get Up And Movie [00:04:03]
06. Layla [00:02:38]
07. Springtime [00:03:39]
08. Friday On My Mind [00:03:14]
09. Have Some Fun Tonight [00:04:40]
Bonus Tracks:
10. Love On The Rebound [00:04:03]

Отчёт EAC

Exact Audio Copy V0.99 prebeta 5 from 4. May 2009
Отчёт EAC об извлечении, выполненном 18. марта 2011, 8:21
Chilly / Come To L.A
Дисковод: Optiarc DVD RW AD-7203A Adapter: 1 ID: 0
Режим чтения : Достоверность
Использование точного потока : Да
Отключение кэша аудио : Да
Использование указателей C2 : Нет
Коррекция смещения при чтении : 48
Способность читать области Lead-in и Lead-out : Нет
Заполнение пропущенных сэмплов тишиной : Да
Удаление блоков с тишиной в начале и конце : Нет
При вычислениях CRC использовались нулевые сэмплы : Да
Интерфейс : Встроенный Win32-интерфейс для Win NT/2000
Выходной формат : Пользовательский кодировщик
Выбранный битрейт : 1024 kBit/s
Качество : Высокий
Добавление ID3-тэга : Да
Утилита сжатия : C:\Program Files\Exact Audio Copy\FLAC\FLAC.EXE
Дополнительные параметры : -8 -V -T "ARTIST=%a" -T "TITLE=%t" -T "ALBUM=%g" -T "DATE=%y" -T "TRACKNUMBER=%n" -T "GENRE=%m" -T "COMMENT=EAC FLAC -8" %s
TOC извлечённого CD
Трек | Старт | Длительность | Начальный сектор | Конечный сектор
---------------------------------------------------------------------
1 | 0:00.00 | 6:32.70 | 0 | 29469
2 | 6:32.70 | 4:14.05 | 29470 | 48524
3 | 10:47.00 | 3:55.45 | 48525 | 66194
4 | 14:42.45 | 3:30.35 | 66195 | 81979
5 | 18:13.05 | 4:03.65 | 81980 | 100269
6 | 22:16.70 | 2:38.45 | 100270 | 112164
7 | 24:55.40 | 3:39.60 | 112165 | 128649
8 | 28:35.25 | 3:14.40 | 128650 | 143239
9 | 31:49.65 | 4:40.05 | 143240 | 164244
10 | 36:29.70 | 4:03.65 | 164245 | 182534
Характеристики диапазона извлечения и сообщения об ошибках
Выбранный диапазон
Имя файла F:\СВОИ РЕЛИЗЫ\Chilly 1978-1982 ''Polydor-Russia Discography 2011''\Chilly 1979 ''Come To L.A.'' Polydor-Russia 2011\Chilly - Come To L.A.wav
Пиковый уровень 100.0 %
Качество диапазона 100.0 %
CRC теста BEC65643
CRC копии BEC65643
Копирование... OK
Ошибок не произошло
AccurateRip: сводка
Трек 1 нет в базе данных
Трек 2 нет в базе данных
Трек 3 нет в базе данных
Трек 4 нет в базе данных
Трек 5 нет в базе данных
Трек 6 нет в базе данных
Трек 7 нет в базе данных
Трек 8 нет в базе данных
Трек 9 нет в базе данных
Трек 10 нет в базе данных
Ни одного трека нет в базе AccurateRip
Конец отчёта

Covers

03 - Showbiz

Исполнитель: Chilly
Альбом: Showbiz
Жанр: Eurodance, Disco
Дата выпуска: 1980
Номер по каталогу:817137-3
Страна: Germany
Лейбл: Polydor
Формат: FLAC (image+cue)
Битрейт: lossless
Продолжительность: 00:36:33
Треклист:

01. There's No Business Like Showbusiness And Showbiz [00:02:08]
02. Rock'n Roll Sally [00:02:21]
03. Taxman [00:03:17]
04. Come Let's Go [00:03:23]
05. The Race [00:04:22]
06. Thank You [00:02:50]
07. Days [00:03:37]
08. Two Wrongs Don't Make A Right [00:03:57]
09. We Are The Popkings [00:04:07]
10. I Hear You Knocking [00:03:17]
11. Gotta Move On [00:02:32]
12. When The Lights Go Down [00:00:36]

Отчёт EAC

Exact Audio Copy V0.99 prebeta 5 from 4. May 2009
Отчёт EAC об извлечении, выполненном 18. марта 2011, 17:40
Chilly / Showbiz
Дисковод: Optiarc DVD RW AD-7203A Adapter: 1 ID: 0
Режим чтения : Достоверность
Использование точного потока : Да
Отключение кэша аудио : Да
Использование указателей C2 : Нет
Коррекция смещения при чтении : 48
Способность читать области Lead-in и Lead-out : Нет
Заполнение пропущенных сэмплов тишиной : Да
Удаление блоков с тишиной в начале и конце : Нет
При вычислениях CRC использовались нулевые сэмплы : Да
Интерфейс : Встроенный Win32-интерфейс для Win NT/2000
Выходной формат : Пользовательский кодировщик
Выбранный битрейт : 1024 kBit/s
Качество : Высокий
Добавление ID3-тэга : Да
Утилита сжатия : C:\Program Files\Exact Audio Copy\FLAC\FLAC.EXE
Дополнительные параметры : -8 -V -T "ARTIST=%a" -T "TITLE=%t" -T "ALBUM=%g" -T "DATE=%y" -T "TRACKNUMBER=%n" -T "GENRE=%m" -T "COMMENT=EAC FLAC -8" %s
TOC извлечённого CD
Трек | Старт | Длительность | Начальный сектор | Конечный сектор
---------------------------------------------------------------------
1 | 0:00.00 | 2:08.30 | 0 | 9629
2 | 2:08.30 | 2:21.55 | 9630 | 20259
3 | 4:30.10 | 3:17.20 | 20260 | 35054
4 | 7:47.30 | 3:23.50 | 35055 | 50329
5 | 11:11.05 | 4:22.15 | 50330 | 69994
6 | 15:33.20 | 2:50.55 | 69995 | 82799
7 | 18:24.00 | 3:37.35 | 82800 | 99109
8 | 22:01.35 | 3:57.60 | 99110 | 116944
9 | 25:59.20 | 4:07.60 | 116945 | 135529
10 | 30:07.05 | 3:17.60 | 135530 | 150364
11 | 33:24.65 | 2:32.50 | 150365 | 161814
12 | 35:57.40 | 0:36.00 | 161815 | 164514
Характеристики диапазона извлечения и сообщения об ошибках
Выбранный диапазон
Имя файла F:\СВОИ РЕЛИЗЫ\Chilly 1978-1982 ''Polydor-Russia Discography 2011''\Chilly 1980 ''Showbiz'' Polydor-Russia 2011\Chilly - Showbiz.wav
Пиковый уровень 100.0 %
Качество диапазона 100.0 %
CRC теста 1C7E043A
CRC копии 1C7E043A
Копирование... OK
Ошибок не произошло
AccurateRip: сводка
Трек 1 нет в базе данных
Трек 2 нет в базе данных
Трек 3 нет в базе данных
Трек 4 нет в базе данных
Трек 5 нет в базе данных
Трек 6 нет в базе данных
Трек 7 нет в базе данных
Трек 8 нет в базе данных
Трек 9 нет в базе данных
Трек 10 нет в базе данных
Трек 11 нет в базе данных
Трек 12 нет в базе данных
Ни одного трека нет в базе AccurateRip
Конец отчёта

Covers

04 - Secret Lies

Исполнитель: Chilly
Альбом: Secret Lies
Жанр: Eurodance, Disco
Дата выпуска: 1982
Номер по каталогу:841486-4
Страна: Germany
Лейбл: Polydor
Формат: FLAC (image+cue)
Битрейт: lossless
Продолжительность: 00:38:27
Треклист:

01. Dimension 5 [00:03:14]
02. Secret Lies [00:03:08]
03. Ten Million Dollar Baby [00:02:37]
04. Brain Storming [00:03:41]
05. Doll Queen [00:02:30]
06. Stars [00:04:21]
07. Simply A Love Song [00:03:06]
08. Play Me A Classic Symphony [00:02:57]
09. The Sun Ain't Gonna Shine Anymore [00:04:08]
10. Runaround [00:02:21]
11. Energy [00:02:01]
12. Hide [00:04:18]

Отчёт EAC

Exact Audio Copy V0.99 prebeta 5 from 4. May 2009
Отчёт EAC об извлечении, выполненном 18. марта 2011, 18:22
Chilly / Secret Lies
Дисковод: Optiarc DVD RW AD-7203A Adapter: 1 ID: 0
Режим чтения : Достоверность
Использование точного потока : Да
Отключение кэша аудио : Да
Использование указателей C2 : Нет
Коррекция смещения при чтении : 48
Способность читать области Lead-in и Lead-out : Нет
Заполнение пропущенных сэмплов тишиной : Да
Удаление блоков с тишиной в начале и конце : Нет
При вычислениях CRC использовались нулевые сэмплы : Да
Интерфейс : Встроенный Win32-интерфейс для Win NT/2000
Выходной формат : Пользовательский кодировщик
Выбранный битрейт : 1024 kBit/s
Качество : Высокий
Добавление ID3-тэга : Да
Утилита сжатия : C:\Program Files\Exact Audio Copy\FLAC\FLAC.EXE
Дополнительные параметры : -8 -V -T "ARTIST=%a" -T "TITLE=%t" -T "ALBUM=%g" -T "DATE=%y" -T "TRACKNUMBER=%n" -T "GENRE=%m" -T "COMMENT=EAC FLAC -8" %s
TOC извлечённого CD
Трек | Старт | Длительность | Начальный сектор | Конечный сектор
---------------------------------------------------------------------
1 | 0:00.00 | 3:14.15 | 0 | 14564
2 | 3:14.15 | 3:08.25 | 14565 | 28689
3 | 6:22.40 | 2:37.15 | 28690 | 40479
4 | 8:59.55 | 3:41.30 | 40480 | 57084
5 | 12:41.10 | 2:30.35 | 57085 | 68369
6 | 15:11.45 | 4:21.45 | 68370 | 87989
7 | 19:33.15 | 3:06.20 | 87990 | 101959
8 | 22:39.35 | 2:57.60 | 101960 | 115294
9 | 25:37.20 | 4:08.65 | 115295 | 133959
10 | 29:46.10 | 2:21.15 | 133960 | 144549
11 | 32:07.25 | 2:01.15 | 144550 | 153639
12 | 34:08.40 | 4:18.50 | 153640 | 173039
Характеристики диапазона извлечения и сообщения об ошибках
Выбранный диапазон
Имя файла F:\СВОИ РЕЛИЗЫ\Chilly 1978-1982 ''Polydor-Russia Discography 2011''\Chilly 1982 ''Secret Lies'' Polydor-Russia 2011\Chilly - Secret Lies.wav
Пиковый уровень 100.0 %
Качество диапазона 99.9 %
CRC теста 814B0751
CRC копии 814B0751
Копирование... OK
Ошибок не произошло
AccurateRip: сводка
Трек 1 нет в базе данных
Трек 2 нет в базе данных
Трек 3 нет в базе данных
Трек 4 нет в базе данных
Трек 5 нет в базе данных
Трек 6 нет в базе данных
Трек 7 нет в базе данных
Трек 8 нет в базе данных
Трек 9 нет в базе данных
Трек 10 нет в базе данных
Трек 11 нет в базе данных
Трек 12 нет в базе данных
Ни одного трека нет в базе AccurateRip
Конец отчёта

Covers


[Торрент-статистика]
[Профиль]  [ЛС] 
Показать сообщения:    
Ответить на тему

Текущее время: Сегодня 08:47

Часовой пояс: GMT + 4



Вы не можете начинать темы
Вы не можете отвечать на сообщения
Вы не можете редактировать свои сообщения
Вы не можете удалять свои сообщения
Вы не можете голосовать в опросах
Вы не можете прикреплять файлы к сообщениям
Вы не можете скачивать файлы