Pia Zadora - Let's Dance Tonight - 1984, (Pop/Synthpop), FLAC (image+.cue), lossless

Ответить на тему
 
Автор
Сообщение

Admiral ®

Пол:

Стаж: 7 лет 2 месяца

Сообщений: 606

Репутация: 146 [+] [-]

Пост 21-Авг-2014 16:15

[Цитировать] 

--Pia Zadora - Let's Dance Tonight-- Жанр: Pop/Synthpop
Год выпуска диска: 1984
Производитель диска: W.Germany Curb Intercord 847.716
Аудио кодек: FLAC
Тип рипа: image+.cue
Битрейт аудио: lossless
Продолжительность: 00:40:11
Наличие сканов в содержимом раздачи: да

01. When The Rain Begins To Fall [0:06:08.74]
02. Little Bit Of Heaven [0:04:06.15]
03. Real Love [0:03:05.70]
04. Follow My Heartbeat [0:06:44.43]
05. Let's Dance Tonight [0:04:49.05]
06. Clapping Song [0:03:26.26]
07. Substitute [0:03:37.57]
08. You Bring Out The Lover In Me [0:03:20.04]
09. Rock It Out [0:04:51.51]

Отчёт EAC

Exact Audio Copy V0.99 prebeta 5 from 4. May 2009
EAC extraction logfile from 21. June 2010, 22:50
Pia Zadora / Let's Dance Tonight
Used drive : PIONEER DVD-RW DVR-112D Adapter: 2 ID: 0
Read mode : Secure
Utilize accurate stream : Yes
Defeat audio cache : Yes
Make use of C2 pointers : No
Read offset correction : 48
Overread into Lead-In and Lead-Out : No
Fill up missing offset samples with silence : Yes
Delete leading and trailing silent blocks : No
Null samples used in CRC calculations : Yes
Used interface : Installed external ASPI interface
Used output format : User Defined Encoder
Selected bitrate : 1024 kBit/s
Quality : High
Add ID3 tag : No
Command line compressor : C:\Program Files (x86)\Exact Audio Copy\Flac\flac.exe
Additional command line options : -5 -V -T "ARTIST=%a" -T "TITLE=%t" -T "ALBUM=%g" -T "DATE=%y" -T "TRACKNUMBER=%n" -T "GENRE=%m" -T "COMMENT=EAC FLAC -5" %s
TOC of the extracted CD
Track | Start | Length | Start sector | End sector
---------------------------------------------------------
1 | 0:00.00 | 6:08.74 | 0 | 27673
2 | 6:08.74 | 4:06.15 | 27674 | 46138
3 | 10:15.14 | 3:05.70 | 46139 | 60083
4 | 13:21.09 | 6:44.43 | 60084 | 90426
5 | 20:05.52 | 4:49.05 | 90427 | 112106
6 | 24:54.57 | 3:26.26 | 112107 | 127582
7 | 28:21.08 | 3:37.57 | 127583 | 143914
8 | 31:58.65 | 3:20.04 | 143915 | 158918
9 | 35:18.69 | 4:51.51 | 158919 | 180794
Range status and errors
Selected range
Filename F:\Pia Zadora - Let's Dance Tonight - 1984\Pia Zadora - Let's Dance Tonight.wav
Peak level 100.0 %
Range quality 100.0 %
Test CRC 3210A563
Copy CRC 3210A563
Copy OK
No errors occurred
AccurateRip summary
Track 1 not present in database
Track 2 not present in database
Track 3 not present in database
Track 4 not present in database
Track 5 not present in database
Track 6 not present in database
Track 7 not present in database
Track 8 not present in database
Track 9 not present in database
None of the tracks are present in the AccurateRip database
End of status report
[Торрент-статистика]
[Профиль]  [ЛС] 
Показать сообщения:    
Ответить на тему

Текущее время: Сегодня 07:10

Часовой пояс: GMT + 4



Вы не можете начинать темы
Вы не можете отвечать на сообщения
Вы не можете редактировать свои сообщения
Вы не можете удалять свои сообщения
Вы не можете голосовать в опросах
Вы не можете прикреплять файлы к сообщениям
Вы не можете скачивать файлы