VA - Best Of Dance '85 '86 '87 (3CD) - 1985-1987, (PopMusic/Dance), FLAC (image+.cue), lossles

Ответить на тему
 
Автор
Сообщение

Admiral ®

Пол:

Стаж: 7 лет 2 месяца

Сообщений: 606

Репутация: 146 [+] [-]

Пост 18-Авг-2014 20:12

[Цитировать] 

--Best Of Dance '85 '86 '87 (3CD)-- Жанр: PopMusic/Dance
Год выпуска диска: 1995-1996
Аудио кодек: FLAC
Тип рипа: image+.cue
Битрейт аудио: lossless
Наличие сканов в содержимом раздачи: да

Best Of Dance' 85 (ZYX 10016-2)

Производитель диска: Made in Germany ZYX 10016-2
Трэклист:
CD: Various - Best Of Dance '85
01. Billy Ocean / Loverboy [0:04:09.82]
02. Valerie Dore / The Night [0:05:46.33]
03. Frankie Goes To Hollywood / Welcome To The Pleasuredome [0:04:23.00]
04. Fun Fun / Give Me Your Love [0:03:56.17]
05. Alphaville / Forever Young [0:03:46.33]
06. Video Kids / Woodpeckers From Space [0:03:52.33]
07. Sister Sledge / Frankie [0:04:17.33]
08. Max Him / Lady Fantasy [0:06:15.33]
09. Wham! / Everything She Wants [0:05:05.16]
10. Scotch / Disco Band [0:05:05.33]
11. Howard Jones / Things Can Only Get Better [0:03:57.50]
12. Steve Arrington / Feel So Real [0:05:09.49]
13. Miko Mission / The World Is You [0:07:50.84]
14. Matt Bianco / More Than I Can Bear [0:04:15.00]
15. Kool & The Gang / Fresh [0:03:56.66]
16. Dead Or Alive / You Spin Me Round (Like A Record) [0:03:15.93]
Total: 1:15:02.60

back&disc

EAC

Exact Audio Copy V1.0 beta 1 from 15. November 2010
EAC extraction logfile from 18. September 2011, 22:54
Various / Best Of Dance '85
Used drive : PLEXTOR DVDR PX-716A Adapter: 0 ID: 0
Read mode : Secure
Utilize accurate stream : Yes
Defeat audio cache : Yes
Make use of C2 pointers : No
Read offset correction : 30
Overread into Lead-In and Lead-Out : Yes
Fill up missing offset samples with silence : Yes
Delete leading and trailing silent blocks : No
Null samples used in CRC calculations : Yes
Used interface : Native Win32 interface for Win NT & 2000
Used output format : User Defined Encoder
Selected bitrate : 1024 kBit/s
Quality : High
Add ID3 tag : No
Command line compressor : C:\Program Files (x86)\FLAC\flac.exe
Additional command line options : -8 -V -T "ARTIST=%a" -T "TITLE=%t" -T "ALBUM=%g" -T "DATE=%y" -T "TRACKNUMBER=%n" -T "GENRE=%m" -T "COMMENT=EAC FLAC -8" %s
TOC of the extracted CD
Track | Start | Length | Start sector | End sector
---------------------------------------------------------
1 | 0:00.00 | 4:09.62 | 0 | 18736
2 | 4:09.62 | 5:46.25 | 18737 | 44711
3 | 9:56.12 | 4:23.00 | 44712 | 64436
4 | 14:19.12 | 3:56.13 | 64437 | 82149
5 | 18:15.25 | 3:46.25 | 82150 | 99124
6 | 22:01.50 | 3:52.25 | 99125 | 116549
7 | 25:54.00 | 4:17.25 | 116550 | 135849
8 | 30:11.25 | 6:15.25 | 135850 | 163999
9 | 36:26.50 | 5:05.12 | 164000 | 186886
10 | 41:31.62 | 5:05.25 | 186887 | 209786
11 | 46:37.12 | 3:57.38 | 209787 | 227599
12 | 50:34.50 | 5:09.37 | 227600 | 250811
13 | 55:44.12 | 7:50.63 | 250812 | 286124
14 | 63:35.00 | 4:15.00 | 286125 | 305249
15 | 67:50.00 | 3:56.50 | 305250 | 322999
16 | 71:46.50 | 3:15.70 | 323000 | 337694
Range status and errors
Selected range
Filename E:\Best Of Dance' 85' 86' 87 (ZYX)\Best Of Dance' 85\Various - Best Of Dance '85.wav
Peak level 100.0 %
Extraction speed 0.0 X
Range quality 100.0 %
Test CRC 275E94A3
Copy CRC 275E94A3
Copy OK
No errors occurred
AccurateRip summary
Track 1 accurately ripped (confidence 4) [A754005A]
Track 2 accurately ripped (confidence 4) [BF28FA9A]
Track 3 accurately ripped (confidence 4) [C9D9F403]
Track 4 accurately ripped (confidence 4) [67A65F47]
Track 5 accurately ripped (confidence 4) [D49E31FA]
Track 6 accurately ripped (confidence 4) [CFBA4933]
Track 7 accurately ripped (confidence 4) [35B1759D]
Track 8 accurately ripped (confidence 4) [1DBC8189]
Track 9 accurately ripped (confidence 4) [53217777]
Track 10 accurately ripped (confidence 4) [6F70FDB3]
Track 11 accurately ripped (confidence 4) [FD198B3A]
Track 12 accurately ripped (confidence 4) [25835784]
Track 13 accurately ripped (confidence 3) [ECAB134B]
Track 14 accurately ripped (confidence 4) [403471CA]
Track 15 accurately ripped (confidence 4) [D0B82B08]
Track 16 accurately ripped (confidence 4) [CED91A03]
All tracks accurately ripped
End of status report

Best Of Dance' 86 (ZYX 10017-2)

Производитель диска: Made in Germany ZYX 10017-2
Трэклист:
CD: Various - Best of Dance '86
YEAR: 1986
01. A-Ha / Take on Me [0:03:48.16]
02. Pet Shop Boys / West End Girls [0:03:24.00]
03. Modern Talking / Atlantis is Calling (SOS for Love) [0:03:47.33]
04. Bolland & Bolland / You're in the Army Now [0:04:17.50]
05. Sheila E / A Love Bizarre [0:03:48.66]
06. Max Him / Japanese Girl [0:03:46.33]
07. Nu Shooz / I Can't Wait [0:03:41.00]
08. Scotch / Mirage [0:03:54.66]
09. Samantha Fox / Touch Me (I Want Your Body) [0:03:44.82]
10. Mike Mareen / Love Spy [0:04:22.33]
11. Sandra / In the Heat of the Night [0:05:18.50]
12. P4F / Propaganda for Frankie [0:03:46.16]
13. Falco / Jeanny [0:05:53.17]
14. Alisha / Baby Talk [0:04:08.00]
15. Billy Ocean / When the Going Gets Tough (the tough get going) [0:04:09.00]
16. Valerie Dore / Lancelot [0:04:33.33]
17. C. C. Catch / Strangers by Night [0:03:38.26]
Total: 1:10:01.26

back&disc

EAC

Exact Audio Copy V1.0 beta 1 from 15. November 2010
EAC extraction logfile from 19. September 2011, 0:20
Various / Best of Dance '86
Used drive : PLEXTOR DVDR PX-716A Adapter: 0 ID: 0
Read mode : Secure
Utilize accurate stream : Yes
Defeat audio cache : Yes
Make use of C2 pointers : No
Read offset correction : 30
Overread into Lead-In and Lead-Out : Yes
Fill up missing offset samples with silence : Yes
Delete leading and trailing silent blocks : No
Null samples used in CRC calculations : Yes
Used interface : Native Win32 interface for Win NT & 2000
Used output format : User Defined Encoder
Selected bitrate : 1024 kBit/s
Quality : High
Add ID3 tag : No
Command line compressor : C:\Program Files (x86)\FLAC\flac.exe
Additional command line options : -8 -V -T "ARTIST=%a" -T "TITLE=%t" -T "ALBUM=%g" -T "DATE=%y" -T "TRACKNUMBER=%n" -T "GENRE=%m" -T "COMMENT=EAC FLAC -8" %s
TOC of the extracted CD
Track | Start | Length | Start sector | End sector
---------------------------------------------------------
1 | 0:00.00 | 3:48.12 | 0 | 17111
2 | 3:48.12 | 3:24.00 | 17112 | 32411
3 | 7:12.12 | 3:47.25 | 32412 | 49461
4 | 10:59.37 | 4:17.38 | 49462 | 68774
5 | 15:17.00 | 3:48.50 | 68775 | 85924
6 | 19:05.50 | 3:46.25 | 85925 | 102899
7 | 22:52.00 | 3:41.00 | 102900 | 119474
8 | 26:33.00 | 3:54.50 | 119475 | 137074
9 | 30:27.50 | 3:44.62 | 137075 | 153936
10 | 34:12.37 | 4:22.25 | 153937 | 173611
11 | 38:34.62 | 5:18.38 | 173612 | 197499
12 | 43:53.25 | 3:46.12 | 197500 | 214461
13 | 47:39.37 | 5:53.13 | 214462 | 240949
14 | 53:32.50 | 4:08.00 | 240950 | 259549
15 | 57:40.50 | 4:09.00 | 259550 | 278224
16 | 61:49.50 | 4:33.25 | 278225 | 298724
17 | 66:23.00 | 3:38.20 | 298725 | 315094
Range status and errors
Selected range
Filename E:\Best Of Dance' 85' 86' 87 (ZYX)\Best Of Dance' 86\Various - Best of Dance '86.wav
Peak level 100.0 %
Extraction speed 0.0 X
Range quality 99.9 %
Test CRC D9BFAFD3
Copy CRC D9BFAFD3
Copy OK
No errors occurred
AccurateRip summary
Track 1 accurately ripped (confidence 4) [D8B7D9A9]
Track 2 accurately ripped (confidence 3) [D8539C16]
Track 3 accurately ripped (confidence 3) [9E516C70]
Track 4 accurately ripped (confidence 3) [927310BE]
Track 5 accurately ripped (confidence 3) [2B833206]
Track 6 accurately ripped (confidence 3) [53925079]
Track 7 accurately ripped (confidence 3) [C43CD81D]
Track 8 accurately ripped (confidence 3) [5823AF65]
Track 9 accurately ripped (confidence 3) [11982A7B]
Track 10 accurately ripped (confidence 3) [6F2E55B4]
Track 11 accurately ripped (confidence 3) [ACDA4BF1]
Track 12 accurately ripped (confidence 3) [C816B6F6]
Track 13 accurately ripped (confidence 3) [B76563A7]
Track 14 accurately ripped (confidence 3) [FE6BC379]
Track 15 accurately ripped (confidence 3) [7D1CC0DC]
Track 16 accurately ripped (confidence 2) [A7DF6A3F]
Track 17 accurately ripped (confidence 2) [AF30B63D]
All tracks accurately ripped
End of status report

Best Of Dance' 87 (ZYX 10018-2)

Производитель диска: Made in Germany ZYX 10018-2
Трэклист:
CD: Various - Best Of Dance '87
01. Rick Astley / Never Gonna Give You Up [0:03:34.00]
02. Delegation / Where Is The Love (We Used To Know) [0:04:18.00]
03. OFF / Electrica Salsa [0:03:34.00]
04. Man To Man Meet Parish / Male Stripper [0:04:06.00]
05. Mel & Kim / Showing Out [0:05:10.82]
06. Eddy Huntington / U.S.S.R. [0:03:26.17]
07. Tina Charles / I Love To Love [0:03:06.33]
08. Silver Pozzolli / Pretty Baby (Italo Boot Mix) [0:01:54.36]
09. Albert One / For Your Love (Italo Boot Mix) [0:01:56.70]
10. Solo / Harem (Italo Boot Mix) [0:00:56.29]
11. P4F / Diamond (Italo Boot Mix) [0:00:24.30]
12. Hot Chocolate / You Sexy Thingh (RMX Version) [0:03:43.33]
13. Laserdance / Humanoid Vision [0:03:21.66]
14. 16 Bit / Where Are You [0:04:18.16]
15. Koto / Jabdah [0:03:38.84]
16. Spagna / Call Me [0:04:06.49]
17. Mike Mareen / Agent Of Liberty [0:04:17.17]
18. Radiorama / Aliens [0:06:12.49]
19. Katmandu / The Break (Dance RMX) [0:03:56.50]
20. First Patrol / The Streets Of Miami [0:04:07.42]
Total: 1:10:09.09

back&disc

EAC

Exact Audio Copy V1.0 beta 1 from 15. November 2010
EAC extraction logfile from 19. September 2011, 1:39
Various / Best Of Dance '87
Used drive : PLEXTOR DVDR PX-716A Adapter: 0 ID: 0
Read mode : Secure
Utilize accurate stream : Yes
Defeat audio cache : Yes
Make use of C2 pointers : No
Read offset correction : 30
Overread into Lead-In and Lead-Out : Yes
Fill up missing offset samples with silence : Yes
Delete leading and trailing silent blocks : No
Null samples used in CRC calculations : Yes
Used interface : Native Win32 interface for Win NT & 2000
Used output format : User Defined Encoder
Selected bitrate : 1024 kBit/s
Quality : High
Add ID3 tag : No
Command line compressor : C:\Program Files (x86)\FLAC\flac.exe
Additional command line options : -8 -V -T "ARTIST=%a" -T "TITLE=%t" -T "ALBUM=%g" -T "DATE=%y" -T "TRACKNUMBER=%n" -T "GENRE=%m" -T "COMMENT=EAC FLAC -8" %s
TOC of the extracted CD
Track | Start | Length | Start sector | End sector
---------------------------------------------------------
1 | 0:00.00 | 3:34.00 | 0 | 16049
2 | 3:34.00 | 4:18.00 | 16050 | 35399
3 | 7:52.00 | 3:34.00 | 35400 | 51449
4 | 11:26.00 | 4:06.00 | 51450 | 69899
5 | 15:32.00 | 5:10.62 | 69900 | 93211
6 | 20:42.62 | 3:26.13 | 93212 | 108674
7 | 24:09.00 | 3:06.25 | 108675 | 122649
8 | 27:15.25 | 1:54.27 | 122650 | 131226
9 | 29:09.52 | 1:56.53 | 131227 | 139979
10 | 31:06.30 | 0:56.22 | 139980 | 144201
11 | 32:02.52 | 0:24.23 | 144202 | 146024
12 | 32:27.00 | 3:43.25 | 146025 | 162774
13 | 36:10.25 | 3:21.50 | 162775 | 177899
14 | 39:32.00 | 4:18.12 | 177900 | 197261
15 | 43:50.12 | 3:38.63 | 197262 | 213674
16 | 47:29.00 | 4:06.37 | 213675 | 232161
17 | 51:35.37 | 4:17.13 | 232162 | 251449
18 | 55:52.50 | 6:12.37 | 251450 | 279386
19 | 62:05.12 | 3:56.38 | 279387 | 297124
20 | 66:01.50 | 4:07.32 | 297125 | 315681
Range status and errors
Selected range
Filename E:\Best Of Dance' 85' 86' 87 (ZYX)\Best Of Dance' 87\Various - Best Of Dance '87.wav
Peak level 100.0 %
Extraction speed 0.1 X
Range quality 100.0 %
Test CRC F1143DBC
Copy CRC F1143DBC
Copy OK
No errors occurred
AccurateRip summary
Track 1 not present in database
Track 2 not present in database
Track 3 not present in database
Track 4 not present in database
Track 5 not present in database
Track 6 accurately ripped (confidence 2) [A38C2060]
Track 7 not present in database
Track 8 not present in database
Track 9 not present in database
Track 10 not present in database
Track 11 not present in database
Track 12 accurately ripped (confidence 2) [008D7FAC]
Track 13 not present in database
Track 14 not present in database
Track 15 not present in database
Track 16 not present in database
Track 17 not present in database
Track 18 not present in database
Track 19 not present in database
Track 20 not present in database
2 track(s) accurately ripped
18 track(s) not present in the AccurateRip database
Some tracks could not be verified as accurate
End of status report
[Торрент-статистика]
[Профиль]  [ЛС] 
Показать сообщения:    
Ответить на тему

Текущее время: Сегодня 04:29

Часовой пояс: GMT + 4



Вы не можете начинать темы
Вы не можете отвечать на сообщения
Вы не можете редактировать свои сообщения
Вы не можете удалять свои сообщения
Вы не можете голосовать в опросах
Вы не можете прикреплять файлы к сообщениям
Вы не можете скачивать файлы