VA - I Love Disco Vol.1 - Vol.3 (9 CD) - 1998-2000, (Disco/Italo-Disco/Hi-Nrg), FLAC (image+.cue), lossles

Ответить на тему
 
Автор
Сообщение

Admiral ®

Пол:

Стаж: 7 лет 2 месяца

Сообщений: 606

Репутация: 146 [+] [-]

Пост 16-Авг-2014 12:03

[Цитировать] 

--Various Artists - I Love Disco Vol.1 - Vol.3
(9 CD)
-- Жанр: Disco/Italo-Disco/Hi-Nrg
Год выпуска диска: 1998-2000
Производитель диска: Spain
Аудио кодек: FLAC
Тип рипа: image+.cue
Битрейт аудио: lossless
Продолжительность: 11:34:29
Трэклист:

I Love Disco Vol.1 (3 CD) - 1998

CD 1 - 1:16:25:
01. My Mine - Hypnotic Tango 6:10
02. Propaganda - P-Machinery 8:05
03. Real Life - Send Me An Angel 5:39
04. Gazebo - Masterpiece 4:04
05. Twins - Face To Face, Heart To Heart 4:54
06. Shannon - Give Me Tonight 6:03
07. Trans-X - Living On A Video 5:49
08. Kano - I Need Love 6:01
09. Baby's Gang - Happy Song 5:33
10. Rofo - Flashlight On A Disconight 6:51
11. Jules - I Want To 6:22
12. Max Him - Lady Fantasy 5:54
13. Scotch - Disco Band 5:01

CD 2 - 1:16:06:
01. Fancy - Bolero (Hold Me In Your Arms Again) 5:38
02. Fox The Fox - Precious Little Diamond 5:01
03. Nick Straker Band - Straight Ahead 6:55
04. Lime - Guilty 6:09
05. Sylvester - Don't Stop 6:50
06. Fun Fun - Happy Station 6:46
07. Viola Wills - Gonna Get Along Without You Now 5:30
08. Carlos Perez - Las Manos Quietas 6:03
09. Chris Luis - In The Heart Of The City 7:02
10. Digital Emotion - Get Up Remix 5:42
11. Sandy Marton - People From Ibiza 6:08
12. Gary Low - You Are A Danger 3:34
13. Atlanta - Romantic Break 4:48

CD 3 - 1:13:48:
01. Soif De La Vie featuring Rosay - Goddess Of Love 5:30
02. Pet Shop Boys - West End Girls 4:48
03. Silver Pozzoli - Around My Dream 5:31
04. Paul Hardcastle - 19 3:37
05. Limahl - Never Ending Story 3:24
06. C.C.Catch - Soul Survivor 3:16
07. Camaro's Gang - Ali Shuffle 5:09
08. O'Gar - Playback Fantasy 6:45
09. Miko Mission - The World Is You 7:48
10. Eddy Rosemound - Funk It 5:20
11. Patrick Cowley - Menergy 7:03
12. Capricorn - I Need Love 5:51
13. Valerie Dore - The Night 5:32
14. Koxo - Step By Step 4:14

I Love Disco Vol.2 (3 CD) - 1999

CD 1 - 1:17:17:
01. Murray Head - One Night In Bangkok 4:06
02. Eddy Huntington - U.S.S.R 5:52
03. Silent Circle - Touch In The Night 5:29
04. Desireless - Voyage Voyage 6:43
05. Baltimora - Tarzan Boy 6:12
06. Phil Fearon And Galaxy - What Do I Do 6:42
07. Off - Electrica Salsa (Baba Baba) 5:46
08. Eartha Kitt - This Is My Life 5:33
09. Rofo - You 've Got To Move It On 6:49
10. Miko Mission - Two For Love 5:22
11. Club House - Do It Again Medley Billie Jean 5:17
12. Gary Low - I Want You 8:28
13. Tony Esposito - Kalimba De Luna 4:58

CD 2 - 1:18:24:
01. Tullio De Piscopo - Stop Bajon (Primavera) 7:12
02. Paul Sharada - Florida (Move Your Feet) 7:28
03. Paul Parker - Right On Target 6:18
04. Lime - Angel Eyes 7:11
05. Kano - Another Life 7:09
06. Shannon - Do You Wanna Get Away 4:52
07. Scotch - Mirage 4:42
08. Rockwells - Somebody's Watching Me 5:59
09. Reeds - In Your Eyes 5:12
10. D.J.K. - Self Control 3:44
11. Hipnosis - Pulstar 5:49
12. Earth Wind & Fire - Let's Groove 5:35
13. Two Tons O'Fun - I Got The Feelling 7:13

CD 3 - 1:18:41:
01. Ken Laszlo - Hey Hey Guy 7:36
02. Digital Game - Please Don't Go 7:03
03. Marcel Fobert & Folie Club - Rapfolie 6:44
04. Daydream - In The Night 4:57
05. Gazebo - Lunatic 6:18
06. M - Popmuzik 4:50
07. Charlie Danone - You Ain't Got A Chance 7:16
08. Patrick Cowley - Megatron Man 9:06
09. Barrabas - On The Road Again 5:47
10. Fancy - Lady Of Ice 4:53
11. Hot Streak - Body Work 7:10
12. B.B. & Q Band - On The Beat 7:02

I Love Disco Vol.3 (3 CD) - 2000

CD 1 - 1:17:59:
01. Eurythmics - Sweet Dreams 4:50
02. Modern Talking - Cheri, Cheri Lady 4:47
03. Rick Astley - Together Forever 7:01
04. Spagna - Call Me 6:02
05. Laura Branigan - Self Control 5:00
06. Den Harrow - Future Brain 5:26
07. Lime - Unexpected Lovers 6:31
08. Bobby Orlando - She Has A Way 5:51
09. Chaka Khan - I Feel For You 5:44
10. Kano - Queen Of Witches 6:15
11. The Twins - Ballet Dancer 4:47
12. Stephanie - Irresistible 4:40
13. Vicio Latino - Que Me Pasa … Que Me Pasa 4:43
14. George Kranz - Din Daa Daa 6:21

CD 2 - 1:18:02:
01. Visage - Fade To Grey 6:43
02. Duran Duran - Wild Boys 5:17
03. Steve Arrington - Feel So Real 6:49
04. Forrest - Rock The Boat 8:46
05. Mel & Kim - Respectable 5:25
06. Bad Boys Blue - You're A Woman 5:19
07. Gazebo - Love In Your Eyes 7:47
08. Paul Rein - Lady-O 6:54
09. Alan Cook - Do You Want To Stay 5:21
10. Gazuzu - Go Go Gorilla 6:41
11. Laser Dance - Power Run 5:26
12. Company B - Fascinated 7:34

CD 3 - 1:17:46:
01. Dead Or Alive - You Spin Me Around 7:23
02. Hazell Dean - Searchin' 6:14
03. Max Him - Japanese Girl 6:25
04. Betty Miranda - Take Me To The Top 6:50
05. Eugene - Livin' In Your Love 6:23
06. Two Of Us - Blue Night Shadow 5:35
07. Divine - You Think You're A Man 6:16
08. Camaro's Gang - Move A Little Closer 6:08
09. Hotline - Fantasy 6:10
10. Stone - Time 5:49
11. The Residents - Kaw-Liga 5:26
12. Brooklyn Express - Sixty-Nine 9:09
Backs

Back - I Love Disco Vol.1

Back - I Love Disco Vol.2

Back - I Love Disco Vol.3

Отчеты EAC
Отчет EAC - I Love Disco Vol.1

Отчет EAC - I Love Disco Vol.1 CD 1

Exact Audio Copy V0.99 prebeta 5 from 4. May 2009
Отчёт EAC об извлечении, выполненном 9. октября 2009, 14:12
Various / I Love Disco Vol.1 CD 1
Дисковод: Optiarc DVD RW AD-5200A Adapter: 0 ID: 0
Режим чтения : Достоверность
Использование точного потока : Да
Отключение кэша аудио : Да
Использование указателей C2 : Нет
Коррекция смещения при чтении : 48
Способность читать области Lead-in и Lead-out : Нет
Заполнение пропущенных сэмплов тишиной : Да
Удаление блоков с тишиной в начале и конце : Нет
При вычислениях CRC использовались нулевые сэмплы : Да
Интерфейс : Установленный внешний ASPI-интерфейс
Выходной формат : Внутренние WAV-операции
Формат сэмплов : 44.100 Гц; 16 бит; стерео
TOC извлечённого CD
Трек | Старт | Длительность | Начальный сектор | Конечный сектор
---------------------------------------------------------------------
1 | 0:00.00 | 6:10.07 | 0 | 27756
2 | 6:10.07 | 8:05.13 | 27757 | 64144
3 | 14:15.20 | 5:39.05 | 64145 | 89574
4 | 19:54.25 | 4:04.02 | 89575 | 107876
5 | 23:58.27 | 4:53.73 | 107877 | 129924
6 | 28:52.25 | 6:02.72 | 129925 | 157146
7 | 34:55.22 | 5:49.12 | 157147 | 183333
8 | 40:44.34 | 6:00.61 | 183334 | 210394
9 | 46:45.20 | 5:33.10 | 210395 | 235379
10 | 52:18.30 | 6:50.72 | 235380 | 266201
11 | 59:09.27 | 6:21.50 | 266202 | 294826
12 | 65:31.02 | 5:53.53 | 294827 | 321354
13 | 71:24.55 | 5:00.50 | 321355 | 343904
Характеристики диапазона извлечения и сообщения об ошибках
Выбранный диапазон
Имя файла E:\Various - I Love Disco Vol.1\Various - I Love Disco Vol.1 CD 1\Various - I Love Disco Vol.1 CD 1.wav
Пиковый уровень 100.0 %
Качество диапазона 100.0 %
CRC теста DEDD3EF4
CRC копии DEDD3EF4
Копирование... OK
Ошибок не произошло
AccurateRip: сводка
Трек 1 точность не определена (достоверность 5) [87BF164D], AccurateRip вернул [6E534A08]
Трек 2 точность не определена (достоверность 4) [954A207B], AccurateRip вернул [2C023560]
Трек 3 точное извлечение (доверие 2) [D496898D]
Трек 4 точность не определена (достоверность 5) [0A84DC21], AccurateRip вернул [586EC151]
Трек 5 точность не определена (достоверность 5) [13FC37C0], AccurateRip вернул [9B8BC1EB]
Трек 6 точность не определена (достоверность 5) [7D183444], AccurateRip вернул [B5080DFC]
Трек 7 точность не определена (достоверность 5) [E5438E02], AccurateRip вернул [2F120ECC]
Трек 8 точность не определена (достоверность 5) [471BFE1C], AccurateRip вернул [33C2ACFD]
Трек 9 точность не определена (достоверность 5) [1AD0FC96], AccurateRip вернул [059E8D4A]
Трек 10 точность не определена (достоверность 5) [5187C943], AccurateRip вернул [2A99480C]
Трек 11 точность не определена (достоверность 5) [61816C45], AccurateRip вернул [133A3EAF]
Трек 12 точность не определена (достоверность 5) [3F80665F], AccurateRip вернул [175A4232]
Трек 13 точность не определена (достоверность 4) [8CCB473E], AccurateRip вернул [66C3FC9A]
1 трек(и) скопированы точно
12 трек(и) не удалось проверить на точность
Некоторые треки не прошли проверку на точность
Конец отчёта

Отчет EAC - I Love Disco Vol.1 CD 2

Exact Audio Copy V0.99 prebeta 5 from 4. May 2009
Отчёт EAC об извлечении, выполненном 9. октября 2009, 15:05
Various / I Love Disco Vol.1 CD 2
Дисковод: Optiarc DVD RW AD-5200A Adapter: 0 ID: 0
Режим чтения : Достоверность
Использование точного потока : Да
Отключение кэша аудио : Да
Использование указателей C2 : Нет
Коррекция смещения при чтении : 48
Способность читать области Lead-in и Lead-out : Нет
Заполнение пропущенных сэмплов тишиной : Да
Удаление блоков с тишиной в начале и конце : Нет
При вычислениях CRC использовались нулевые сэмплы : Да
Интерфейс : Установленный внешний ASPI-интерфейс
Выходной формат : Внутренние WAV-операции
Формат сэмплов : 44.100 Гц; 16 бит; стерео
TOC извлечённого CD
Трек | Старт | Длительность | Начальный сектор | Конечный сектор
---------------------------------------------------------------------
1 | 0:00.00 | 5:37.52 | 0 | 25326
2 | 5:37.52 | 5:00.63 | 25327 | 47889
3 | 10:38.40 | 6:55.32 | 47890 | 79046
4 | 17:33.72 | 6:09.10 | 79047 | 106731
5 | 23:43.07 | 6:49.70 | 106732 | 137476
6 | 30:33.02 | 6:46.08 | 137477 | 167934
7 | 37:19.10 | 5:30.02 | 167935 | 192686
8 | 42:49.12 | 6:02.60 | 192687 | 219896
9 | 48:51.72 | 7:01.43 | 219897 | 251514
10 | 55:53.40 | 5:42.25 | 251515 | 277189
11 | 61:35.65 | 6:07.67 | 277190 | 304781
12 | 67:43.57 | 3:34.05 | 304782 | 320836
13 | 71:17.62 | 4:48.20 | 320837 | 342456
Характеристики диапазона извлечения и сообщения об ошибках
Выбранный диапазон
Имя файла E:\Various - I Love Disco Vol.1\Various - I Love Disco Vol.1 CD 2\Various - I Love Disco Vol.1 CD 2.wav
Пиковый уровень 100.0 %
Качество диапазона 100.0 %
CRC теста 4F96CB6A
CRC копии 4F96CB6A
Копирование... OK
Ошибок не произошло
AccurateRip: сводка
Трек 1 точное извлечение (доверие 3) [2D3AD69D]
Трек 2 точное извлечение (доверие 3) [7A29A185]
Трек 3 точное извлечение (доверие 3) [158BC974]
Трек 4 точное извлечение (доверие 3) [87B93720]
Трек 5 точное извлечение (доверие 3) [ECE983A4]
Трек 6 точное извлечение (доверие 3) [7924FE0C]
Трек 7 точное извлечение (доверие 3) [220C7116]
Трек 8 точное извлечение (доверие 3) [A854625C]
Трек 9 точное извлечение (доверие 3) [81DBED1C]
Трек 10 точное извлечение (доверие 3) [BA332AA8]
Трек 11 точное извлечение (доверие 3) [0557678F]
Трек 12 точное извлечение (доверие 3) [860F26DF]
Трек 13 точное извлечение (доверие 3) [246C80DF]
Все треки извлечены точно
Конец отчёта

Отчет EAC - I Love Disco Vol.1 CD 3

Exact Audio Copy V0.99 prebeta 5 from 4. May 2009
Отчёт EAC об извлечении, выполненном 9. октября 2009, 19:17
Various / I Love Disco Vol.1 CD 3
Дисковод: Optiarc DVD RW AD-5200A Adapter: 0 ID: 0
Режим чтения : Достоверность
Использование точного потока : Да
Отключение кэша аудио : Да
Использование указателей C2 : Нет
Коррекция смещения при чтении : 48
Способность читать области Lead-in и Lead-out : Нет
Заполнение пропущенных сэмплов тишиной : Да
Удаление блоков с тишиной в начале и конце : Нет
При вычислениях CRC использовались нулевые сэмплы : Да
Интерфейс : Установленный внешний ASPI-интерфейс
Выходной формат : Внутренние WAV-операции
Формат сэмплов : 44.100 Гц; 16 бит; стерео
TOC извлечённого CD
Трек | Старт | Длительность | Начальный сектор | Конечный сектор
---------------------------------------------------------------------
1 | 0:00.00 | 5:29.50 | 0 | 24724
2 | 5:29.50 | 4:48.05 | 24725 | 46329
3 | 10:17.55 | 5:30.67 | 46330 | 71146
4 | 15:48.47 | 3:37.03 | 71147 | 87424
5 | 19:25.50 | 3:24.20 | 87425 | 102744
6 | 22:49.70 | 3:16.22 | 102745 | 117466
7 | 26:06.17 | 5:09.05 | 117467 | 140646
8 | 31:15.22 | 6:44.43 | 140647 | 170989
9 | 37:59.65 | 7:48.37 | 170990 | 206126
10 | 45:48.27 | 5:20.07 | 206127 | 230133
11 | 51:08.34 | 7:02.51 | 230134 | 261834
12 | 58:11.10 | 5:51.07 | 261835 | 288166
13 | 64:02.17 | 5:32.03 | 288167 | 313069
14 | 69:34.20 | 4:14.00 | 313070 | 332119
Характеристики диапазона извлечения и сообщения об ошибках
Выбранный диапазон
Имя файла E:\Various - I Love Disco Vol.1\Various - I Love Disco Vol.1 CD 3\Various - I Love Disco Vol.1 CD 3.wav
Пиковый уровень 100.0 %
Качество диапазона 100.0 %
CRC теста 3BD11617
CRC копии 3BD11617
Копирование... OK
Ошибок не произошло
AccurateRip: сводка
Трек 1 точность не определена (достоверность 3) [4CBE5AF5], AccurateRip вернул [5D118B02]
Трек 2 точность не определена (достоверность 3) [55BEDA25], AccurateRip вернул [F464E5D7]
Трек 3 точность не определена (достоверность 3) [57F4FB25], AccurateRip вернул [127033B7]
Трек 4 точность не определена (достоверность 3) [D954895B], AccurateRip вернул [1234C689]
Трек 5 точность не определена (достоверность 3) [66CC022A], AccurateRip вернул [0588528B]
Трек 6 точность не определена (достоверность 3) [11AA8261], AccurateRip вернул [AF28CE15]
Трек 7 точность не определена (достоверность 3) [ACF8120E], AccurateRip вернул [312713DA]
Трек 8 точность не определена (достоверность 3) [C25ADA24], AccurateRip вернул [4B47E340]
Трек 9 точность не определена (достоверность 3) [47BC5830], AccurateRip вернул [3ECC9F14]
Трек 10 точность не определена (достоверность 3) [9FEC675C], AccurateRip вернул [2AD2B2BF]
Трек 11 точность не определена (достоверность 3) [3AFEA7F1], AccurateRip вернул [9FB357BE]
Трек 12 точность не определена (достоверность 3) [C35F6DCA], AccurateRip вернул [447CC8CF]
Трек 13 точность не определена (достоверность 3) [54D07F31], AccurateRip вернул [B61B0575]
Трек 14 точность не определена (достоверность 3) [A02DBDAE], AccurateRip вернул [4807EAD6]
Ни один трек не прошёл проверки на точность
В вашей базе может быть иной вариант штамповки диска
Конец отчёта
Отчет EAC - I Love Disco Vol.2

Отчет EAC - I Love Disco Vol.2 CD 1

Exact Audio Copy V0.99 prebeta 5 from 4. May 2009
Отчёт EAC об извлечении, выполненном 10. октября 2009, 20:32
Various / I Love Disco Vol.2 CD 1
Дисковод: Optiarc DVD RW AD-5200A Adapter: 0 ID: 0
Режим чтения : Достоверность
Использование точного потока : Да
Отключение кэша аудио : Да
Использование указателей C2 : Нет
Коррекция смещения при чтении : 48
Способность читать области Lead-in и Lead-out : Нет
Заполнение пропущенных сэмплов тишиной : Да
Удаление блоков с тишиной в начале и конце : Нет
При вычислениях CRC использовались нулевые сэмплы : Да
Интерфейс : Установленный внешний ASPI-интерфейс
Выходной формат : Внутренние WAV-операции
Формат сэмплов : 44.100 Гц; 16 бит; стерео
TOC извлечённого CD
Трек | Старт | Длительность | Начальный сектор | Конечный сектор
---------------------------------------------------------------------
1 | 0:00.00 | 4:06.22 | 0 | 18471
2 | 4:06.22 | 5:51.73 | 18472 | 44869
3 | 9:58.20 | 5:28.65 | 44870 | 69534
4 | 15:27.10 | 6:42.50 | 69535 | 99734
5 | 22:09.60 | 6:12.25 | 99735 | 127659
6 | 28:22.10 | 6:42.27 | 127660 | 157836
7 | 35:04.37 | 5:45.38 | 157837 | 183749
8 | 40:50.00 | 5:33.02 | 183750 | 208726
9 | 46:23.02 | 6:49.08 | 208727 | 239409
10 | 53:12.10 | 5:22.22 | 239410 | 263581
11 | 58:34.32 | 5:16.60 | 263582 | 287341
12 | 63:51.17 | 8:27.58 | 287342 | 325424
13 | 72:19.00 | 4:58.12 | 325425 | 347786
Характеристики диапазона извлечения и сообщения об ошибках
Выбранный диапазон
Имя файла E:\Various - I Love Disco Vol.2\Various - I Love Disco Vol.2 CD 1\Various - I Love Disco Vol.2 CD 1.wav
Пиковый уровень 98.8 %
Качество диапазона 100.0 %
CRC теста 014B6B36
CRC копии 014B6B36
Копирование... OK
Ошибок не произошло
AccurateRip: сводка
Трек 1 точное извлечение (доверие 2) [245C7493]
Трек 2 точное извлечение (доверие 2) [B7C38B9F]
Трек 3 точное извлечение (доверие 2) [B71ACD98]
Трек 4 точное извлечение (доверие 2) [CB4BB24F]
Трек 5 точное извлечение (доверие 2) [A32EECD4]
Трек 6 точное извлечение (доверие 2) [4FC6DCD4]
Трек 7 точное извлечение (доверие 2) [95949F63]
Трек 8 точное извлечение (доверие 2) [9E38AB46]
Трек 9 точное извлечение (доверие 2) [822C4F77]
Трек 10 точное извлечение (доверие 2) [3CEC6294]
Трек 11 точное извлечение (доверие 2) [4A09F0AD]
Трек 12 точное извлечение (доверие 2) [B20033BC]
Трек 13 точное извлечение (доверие 2) [047F89A1]
Все треки извлечены точно
Конец отчёта

Отчет EAC - I Love Disco Vol.2 CD 2

Exact Audio Copy V0.99 prebeta 5 from 4. May 2009
Отчёт EAC об извлечении, выполненном 10. октября 2009, 21:23
Various / I Love Disco Vol.2 CD 2
Дисковод: Optiarc DVD RW AD-5200A Adapter: 0 ID: 0
Режим чтения : Достоверность
Использование точного потока : Да
Отключение кэша аудио : Да
Использование указателей C2 : Нет
Коррекция смещения при чтении : 48
Способность читать области Lead-in и Lead-out : Нет
Заполнение пропущенных сэмплов тишиной : Да
Удаление блоков с тишиной в начале и конце : Нет
При вычислениях CRC использовались нулевые сэмплы : Да
Интерфейс : Установленный внешний ASPI-интерфейс
Выходной формат : Внутренние WAV-операции
Формат сэмплов : 44.100 Гц; 16 бит; стерео
TOC извлечённого CD
Трек | Старт | Длительность | Начальный сектор | Конечный сектор
---------------------------------------------------------------------
1 | 0:00.00 | 7:12.10 | 0 | 32409
2 | 7:12.10 | 7:27.50 | 32410 | 65984
3 | 14:39.60 | 6:17.72 | 65985 | 94331
4 | 20:57.57 | 7:10.38 | 94332 | 126619
5 | 28:08.20 | 7:09.12 | 126620 | 158806
6 | 35:17.32 | 4:52.20 | 158807 | 180726
7 | 40:09.52 | 4:42.23 | 180727 | 201899
8 | 44:52.00 | 5:58.47 | 201900 | 228796
9 | 50:50.47 | 5:12.08 | 228797 | 252204
10 | 56:02.55 | 3:44.10 | 252205 | 269014
11 | 59:46.65 | 5:49.25 | 269015 | 295214
12 | 65:36.15 | 5:34.45 | 295215 | 320309
13 | 71:10.60 | 7:13.32 | 320310 | 352816
Характеристики диапазона извлечения и сообщения об ошибках
Выбранный диапазон
Имя файла E:\Various - I Love Disco Vol.2\Various - I Love Disco Vol.2 CD 2\Various - I Love Disco Vol.2 CD 2.wav
Пиковый уровень 97.5 %
Качество диапазона 100.0 %
CRC теста C9A38226
CRC копии C9A38226
Копирование... OK
Ошибок не произошло
AccurateRip: сводка
Трек 1 точное извлечение (доверие 3) [C3F72A16]
Трек 2 точное извлечение (доверие 3) [D7A25AF3]
Трек 3 точное извлечение (доверие 3) [BB01052C]
Трек 4 точное извлечение (доверие 3) [B08D3856]
Трек 5 точное извлечение (доверие 3) [9ADB3FD0]
Трек 6 точное извлечение (доверие 3) [2CC93EA4]
Трек 7 точное извлечение (доверие 3) [465876FF]
Трек 8 точное извлечение (доверие 3) [8B513FF8]
Трек 9 точное извлечение (доверие 3) [4610254B]
Трек 10 точное извлечение (доверие 3) [A051932A]
Трек 11 точное извлечение (доверие 3) [BCE97AAD]
Трек 12 точное извлечение (доверие 3) [50FC1EC8]
Трек 13 точное извлечение (доверие 3) [D2D6AC82]
Все треки извлечены точно
Конец отчёта

Отчет EAC - I Love Disco Vol.2 CD 3

Exact Audio Copy V0.99 prebeta 5 from 4. May 2009
Отчёт EAC об извлечении, выполненном 10. октября 2009, 22:09
Various Artists / I Love Disco Vol.2 CD 3
Дисковод: Optiarc DVD RW AD-5200A Adapter: 0 ID: 0
Режим чтения : Достоверность
Использование точного потока : Да
Отключение кэша аудио : Да
Использование указателей C2 : Нет
Коррекция смещения при чтении : 48
Способность читать области Lead-in и Lead-out : Нет
Заполнение пропущенных сэмплов тишиной : Да
Удаление блоков с тишиной в начале и конце : Нет
При вычислениях CRC использовались нулевые сэмплы : Да
Интерфейс : Установленный внешний ASPI-интерфейс
Выходной формат : Внутренние WAV-операции
Формат сэмплов : 44.100 Гц; 16 бит; стерео
TOC извлечённого CD
Трек | Старт | Длительность | Начальный сектор | Конечный сектор
---------------------------------------------------------------------
1 | 0:00.00 | 7:36.02 | 0 | 34201
2 | 7:36.02 | 7:02.63 | 34202 | 65914
3 | 14:38.65 | 6:44.15 | 65915 | 96229
4 | 21:23.05 | 4:57.07 | 96230 | 118511
5 | 26:20.12 | 6:17.45 | 118512 | 146831
6 | 32:37.57 | 4:49.40 | 146832 | 168546
7 | 37:27.22 | 7:16.15 | 168547 | 201261
8 | 44:43.37 | 9:06.18 | 201262 | 242229
9 | 53:49.55 | 5:46.47 | 242230 | 268226
10 | 59:36.27 | 4:52.50 | 268227 | 290176
11 | 64:29.02 | 7:10.35 | 290177 | 322461
12 | 71:39.37 | 7:01.48 | 322462 | 354084
Характеристики диапазона извлечения и сообщения об ошибках
Выбранный диапазон
Имя файла E:\Various - I Love Disco Vol.2\Various - I Love Disco Vol.2 CD 3\Various Artists - I Love Disco Vol.2 CD 3.wav
Пиковый уровень 91.5 %
Качество диапазона 100.0 %
CRC теста B7AAC350
CRC копии B7AAC350
Копирование... OK
Ошибок не произошло
AccurateRip: сводка
Трек 1 точное извлечение (доверие 2) [C3010903]
Трек 2 точное извлечение (доверие 2) [CC4BF1C3]
Трек 3 точное извлечение (доверие 2) [6D9162C1]
Трек 4 точное извлечение (доверие 2) [8790BE5B]
Трек 5 точное извлечение (доверие 2) [47FFC178]
Трек 6 точное извлечение (доверие 2) [2DEC74A1]
Трек 7 точное извлечение (доверие 2) [DD780316]
Трек 8 точное извлечение (доверие 2) [418B177F]
Трек 9 точное извлечение (доверие 2) [D22543D2]
Трек 10 точное извлечение (доверие 2) [A3161AEB]
Трек 11 точное извлечение (доверие 2) [7DC2299E]
Трек 12 точное извлечение (доверие 2) [585E929F]
Все треки извлечены точно
Конец отчёта
Отчет EAC - I Love Disco Vol.3

Отчет EAC - I Love Disco Vol.3 CD 1

Exact Audio Copy V0.99 prebeta 5 from 4. May 2009
Отчёт EAC об извлечении, выполненном 9. октября 2009, 20:48
Various / I Love Disco Vol.3 CD 1
Дисковод: Optiarc DVD RW AD-5200A Adapter: 0 ID: 0
Режим чтения : Достоверность
Использование точного потока : Да
Отключение кэша аудио : Да
Использование указателей C2 : Нет
Коррекция смещения при чтении : 48
Способность читать области Lead-in и Lead-out : Нет
Заполнение пропущенных сэмплов тишиной : Да
Удаление блоков с тишиной в начале и конце : Нет
При вычислениях CRC использовались нулевые сэмплы : Да
Интерфейс : Установленный внешний ASPI-интерфейс
Выходной формат : Внутренние WAV-операции
Формат сэмплов : 44.100 Гц; 16 бит; стерео
TOC извлечённого CD
Трек | Старт | Длительность | Начальный сектор | Конечный сектор
---------------------------------------------------------------------
1 | 0:00.00 | 4:50.35 | 0 | 21784
2 | 4:50.35 | 4:47.00 | 21785 | 43309
3 | 9:37.35 | 7:00.50 | 43310 | 74859
4 | 16:38.10 | 6:02.37 | 74860 | 102046
5 | 22:40.47 | 5:00.10 | 102047 | 124556
6 | 27:40.57 | 5:25.48 | 124557 | 148979
7 | 33:06.30 | 6:30.70 | 148980 | 178299
8 | 39:37.25 | 5:51.02 | 178300 | 204626
9 | 45:28.27 | 5:44.33 | 204627 | 230459
10 | 51:12.60 | 6:14.62 | 230460 | 258571
11 | 57:27.47 | 4:47.08 | 258572 | 280104
12 | 62:14.55 | 4:40.15 | 280105 | 301119
13 | 66:54.70 | 4:43.30 | 301120 | 322374
14 | 71:38.25 | 6:21.12 | 322375 | 350961
Характеристики диапазона извлечения и сообщения об ошибках
Выбранный диапазон
Имя файла E:\Various - I Love Disco Vol.3\Various - I Love Disco Vol.3 CD 1\Various - I Love Disco Vol.3 CD 1.wav
Пиковый уровень 100.0 %
Качество диапазона 100.0 %
CRC теста 149856DA
CRC копии 149856DA
Копирование... OK
Ошибок не произошло
AccurateRip: сводка
Трек 1 точное извлечение (доверие 3) [2632328F]
Трек 2 точное извлечение (доверие 3) [E07922F4]
Трек 3 точное извлечение (доверие 3) [24FC8CFB]
Трек 4 точное извлечение (доверие 3) [8F388B60]
Трек 5 точное извлечение (доверие 3) [9C20C3AF]
Трек 6 точное извлечение (доверие 3) [1DE31FBD]
Трек 7 точное извлечение (доверие 3) [3C6888AF]
Трек 8 точное извлечение (доверие 3) [90DAFAD3]
Трек 9 точное извлечение (доверие 3) [D05302D4]
Трек 10 точное извлечение (доверие 3) [BAD2F16D]
Трек 11 точное извлечение (доверие 3) [F3CDEC22]
Трек 12 точное извлечение (доверие 3) [0185F6CE]
Трек 13 точное извлечение (доверие 3) [F01F6AB5]
Трек 14 точное извлечение (доверие 3) [8AF8F051]
Все треки извлечены точно
Конец отчёта

Отчет EAC - I Love Disco Vol.3 CD 2

Exact Audio Copy V0.99 prebeta 5 from 4. May 2009
Отчёт EAC об извлечении, выполненном 9. октября 2009, 21:38
Various / I Love Disco Vol.3 CD 2
Дисковод: Optiarc DVD RW AD-5200A Adapter: 0 ID: 0
Режим чтения : Достоверность
Использование точного потока : Да
Отключение кэша аудио : Да
Использование указателей C2 : Нет
Коррекция смещения при чтении : 48
Способность читать области Lead-in и Lead-out : Нет
Заполнение пропущенных сэмплов тишиной : Да
Удаление блоков с тишиной в начале и конце : Нет
При вычислениях CRC использовались нулевые сэмплы : Да
Интерфейс : Установленный внешний ASPI-интерфейс
Выходной формат : Внутренние WAV-операции
Формат сэмплов : 44.100 Гц; 16 бит; стерео
TOC извлечённого CD
Трек | Старт | Длительность | Начальный сектор | Конечный сектор
---------------------------------------------------------------------
1 | 0:00.00 | 6:43.35 | 0 | 30259
2 | 6:43.35 | 5:16.52 | 30260 | 54011
3 | 12:00.12 | 6:49.35 | 54012 | 84721
4 | 18:49.47 | 8:45.58 | 84722 | 124154
5 | 27:35.30 | 5:24.72 | 124155 | 148526
6 | 33:00.27 | 5:18.70 | 148527 | 172446
7 | 38:19.22 | 7:47.18 | 172447 | 207489
8 | 46:06.40 | 6:53.67 | 207490 | 238531
9 | 53:00.32 | 5:21.33 | 238532 | 262639
10 | 58:21.65 | 6:40.40 | 262640 | 292679
11 | 65:02.30 | 5:26.10 | 292680 | 317139
12 | 70:28.40 | 7:33.70 | 317140 | 351184
Характеристики диапазона извлечения и сообщения об ошибках
Выбранный диапазон
Имя файла E:\Various - I Love Disco Vol.3\Various - I Love Disco Vol.3 CD 2\Various - I Love Disco Vol.3 CD 2.wav
Пиковый уровень 100.0 %
Качество диапазона 100.0 %
CRC теста 73DDED60
CRC копии 73DDED60
Копирование... OK
Ошибок не произошло
AccurateRip: сводка
Трек 1 точное извлечение (доверие 4) [2D0F5F6A]
Трек 2 точное извлечение (доверие 4) [9DCFC438]
Трек 3 точное извлечение (доверие 4) [4D18FC06]
Трек 4 точное извлечение (доверие 4) [EAF0755D]
Трек 5 точное извлечение (доверие 4) [FB271CD6]
Трек 6 точное извлечение (доверие 4) [2DF6E3AA]
Трек 7 точное извлечение (доверие 4) [47858D3A]
Трек 8 точное извлечение (доверие 4) [FB3985B3]
Трек 9 точное извлечение (доверие 4) [DAAEFB80]
Трек 10 точное извлечение (доверие 4) [2A917FAE]
Трек 11 точное извлечение (доверие 4) [47774358]
Трек 12 точное извлечение (доверие 4) [E1320554]
Все треки извлечены точно
Конец отчёта

Отчет EAC - I Love Disco Vol.3 CD 3

Exact Audio Copy V0.99 prebeta 5 from 4. May 2009
Отчёт EAC об извлечении, выполненном 9. октября 2009, 22:27
Various / I Love Disco Vol.3 CD 3
Дисковод: Optiarc DVD RW AD-5200A Adapter: 0 ID: 0
Режим чтения : Достоверность
Использование точного потока : Да
Отключение кэша аудио : Да
Использование указателей C2 : Нет
Коррекция смещения при чтении : 48
Способность читать области Lead-in и Lead-out : Нет
Заполнение пропущенных сэмплов тишиной : Да
Удаление блоков с тишиной в начале и конце : Нет
При вычислениях CRC использовались нулевые сэмплы : Да
Интерфейс : Установленный внешний ASPI-интерфейс
Выходной формат : Внутренние WAV-операции
Формат сэмплов : 44.100 Гц; 16 бит; стерео
TOC извлечённого CD
Трек | Старт | Длительность | Начальный сектор | Конечный сектор
---------------------------------------------------------------------
1 | 0:00.00 | 7:23.05 | 0 | 33229
2 | 7:23.05 | 6:13.55 | 33230 | 61259
3 | 13:36.60 | 6:24.40 | 61260 | 90099
4 | 20:01.25 | 6:49.42 | 90100 | 120816
5 | 26:50.67 | 6:22.38 | 120817 | 149504
6 | 33:13.30 | 5:34.50 | 149505 | 174604
7 | 38:48.05 | 6:15.70 | 174605 | 202799
8 | 45:04.00 | 6:08.02 | 202800 | 230401
9 | 51:12.02 | 6:10.05 | 230402 | 258156
10 | 57:22.07 | 5:49.25 | 258157 | 284356
11 | 63:11.32 | 5:25.65 | 284357 | 308796
12 | 68:37.22 | 9:09.30 | 308797 | 350001
Характеристики диапазона извлечения и сообщения об ошибках
Выбранный диапазон
Имя файла E:\Various - I Love Disco Vol.3\Various - I Love Disco Vol.3 CD 3\Various - I Love Disco Vol.3 CD 3.wav
Пиковый уровень 100.0 %
Качество диапазона 100.0 %
CRC теста BEE0ED66
CRC копии BEE0ED66
Копирование... OK
Ошибок не произошло
AccurateRip: сводка
Трек 1 точное извлечение (доверие 2) [F071B654]
Трек 2 точное извлечение (доверие 2) [8C367C82]
Трек 3 точное извлечение (доверие 2) [A696A8B9]
Трек 4 точное извлечение (доверие 2) [CCBEDCA4]
Трек 5 точное извлечение (доверие 2) [5A0A31E1]
Трек 6 точное извлечение (доверие 2) [E40AA3E6]
Трек 7 точное извлечение (доверие 2) [725E6CED]
Трек 8 точное извлечение (доверие 2) [3E08DE9C]
Трек 9 точное извлечение (доверие 2) [ED1BF054]
Трек 10 точное извлечение (доверие 2) [9798C523]
Трек 11 точное извлечение (доверие 2) [C56CAE96]
Трек 12 точное извлечение (доверие 2) [891410BD]
Все треки извлечены точно
Конец отчёта
[Торрент-статистика]
[Профиль]  [ЛС] 
Показать сообщения:    
Ответить на тему

Текущее время: Сегодня 01:15

Часовой пояс: GMT + 4



Вы не можете начинать темы
Вы не можете отвечать на сообщения
Вы не можете редактировать свои сообщения
Вы не можете удалять свои сообщения
Вы не можете голосовать в опросах
Вы не можете прикреплять файлы к сообщениям
Вы не можете скачивать файлы