VA - I Love Disco 80's Vol.6 (2 CD) - 2010, (Italo-Disco/Euro-Disco/Synth-Pop), FLAC (image+.cue), lossless

Ответить на тему
 
Автор
Сообщение

Admiral ®

Пол:

Стаж: 7 лет 2 месяца

Сообщений: 606

Репутация: 146 [+] [-]

Пост 15-Авг-2014 01:45

[Цитировать] 

--Various Artists - I Love Disco 80's Vol.6 (2 CD)-- Жанр: Italo-Disco/Euro-Disco/Synth-Pop
Страна-производитель диска: Spain
Год издания диска: 2010
Издатель (лейбл): Blanco Y Negro
Номер по каталогу: MXCD 2113 (CB)
Аудио кодек: FLAC (*.flac)
Тип рипа: image+.cue
Битрейт аудио: lossless
Продолжительность: 01:13:12+01:11:56
Наличие сканов в содержимом раздачи: да
Трэклист:
CD 1 :
01. Alphaville - Forever Young 6:08
02. The Human League - Don't You Want Me (ARP Mix) 5:55
03. Daryl Hall & John Oates - Out Of Touch 7:36
04. Samantha Fox - I Surrender (To The Spirit Of The Night) 6:35
05. Nick Kamen - Each Time You Break My Heart 6:53
06. E.G.Daily - Mind Over Matter (Remix) 7:03
07. Mory Kante - Ye Ke Ye Ke 6:19
08. London Boys - I'm Gonna Give My Heart 8:10
09. Costas Charitodiplomenos - Lost In The Night 6:47
10. Valerie Dore - King Arthur 5:44
11. Den Harrow - Mad Desire (Remix) 6:02

CD 2 :
01. Rick Astley - Take Me To Your Heart 6:58
02. Eighth Wonder - Cross My Heart 7:06
03. Baltimora - Key Key Karimba 6:00
04. Kim Wilde - You Keep Me Hangin' On 9:04
05. France Joli - Party Lights 5:25
06. Kasso - Baby Doll (Remix) 7:32
07. Gary Low - Forever, Tonight And All My Life 7:10
08. Eartha Kitt - Where Is My Man 6:25
09. Break Machine - Street Dance 6:28
10. Azul Y Negro - Fu-Man-Chu 4:53
11. Roni Griffith - Love Is The Drug 4:55

Back

Отчеты EAC

Отчет EAC - VA - I Love Disco 80's Vol.6 CD 1

Exact Audio Copy V0.99 prebeta 5 from 4. May 2009
Отчёт EAC об извлечении, выполненном 13. марта 2011, 22:33
Various / I Love Disco 80's Vol.6 CD 1
Дисковод: PIONEER DVD-RW DVR-107D Adapter: 3 ID: 0
Режим чтения : Достоверность
Использование точного потока : Да
Отключение кэша аудио : Да
Использование указателей C2 : Нет
Коррекция смещения при чтении : 48
Способность читать области Lead-in и Lead-out : Нет
Заполнение пропущенных сэмплов тишиной : Да
Удаление блоков с тишиной в начале и конце : Нет
При вычислениях CRC использовались нулевые сэмплы : Да
Интерфейс : Встроенный Win32-интерфейс для Win NT/2000
Выходной формат : Внутренние WAV-операции
Формат сэмплов : 44.100 Гц; 16 бит; стерео
TOC извлечённого CD
Трек | Старт | Длительность | Начальный сектор | Конечный сектор
---------------------------------------------------------------------
1 | 0:00.00 | 6:08.13 | 0 | 27612
2 | 6:08.13 | 5:55.37 | 27613 | 54274
3 | 12:03.50 | 7:36.29 | 54275 | 88503
4 | 19:40.04 | 6:34.58 | 88504 | 118111
5 | 26:14.62 | 6:53.05 | 118112 | 149091
6 | 33:07.67 | 7:02.38 | 149092 | 180779
7 | 40:10.30 | 6:19.06 | 180780 | 209210
8 | 46:29.36 | 8:10.12 | 209211 | 245972
9 | 54:39.48 | 6:46.67 | 245973 | 276489
10 | 61:26.40 | 5:43.69 | 276490 | 302283
11 | 67:10.34 | 6:02.11 | 302284 | 329444
Характеристики диапазона извлечения и сообщения об ошибках
Выбранный диапазон
Имя файла D:\All\Music\Various - I Love Disco 80's Vol.6\Various - I Love Disco 80's Vol.6 CD 1\Various - I Love Disco 80's Vol.6 CD 1.wav
Пиковый уровень 100.0 %
Качество диапазона 100.0 %
CRC теста AEAEF268
CRC копии AEAEF268
Копирование... OK
Ошибок не произошло
AccurateRip: сводка
Трек 1 нет в базе данных
Трек 2 нет в базе данных
Трек 3 нет в базе данных
Трек 4 нет в базе данных
Трек 5 нет в базе данных
Трек 6 нет в базе данных
Трек 7 нет в базе данных
Трек 8 нет в базе данных
Трек 9 нет в базе данных
Трек 10 нет в базе данных
Трек 11 нет в базе данных
Ни одного трека нет в базе AccurateRip
Конец отчёта

Отчет EAC - VA - I Love Disco 80's Vol.6 CD 2

Exact Audio Copy V0.99 prebeta 5 from 4. May 2009
Отчёт EAC об извлечении, выполненном 13. марта 2011, 22:55
Various / I Love Disco 80's Vol.6 CD 2
Дисковод: PIONEER DVD-RW DVR-107D Adapter: 3 ID: 0
Режим чтения : Достоверность
Использование точного потока : Да
Отключение кэша аудио : Да
Использование указателей C2 : Нет
Коррекция смещения при чтении : 48
Способность читать области Lead-in и Lead-out : Нет
Заполнение пропущенных сэмплов тишиной : Да
Удаление блоков с тишиной в начале и конце : Нет
При вычислениях CRC использовались нулевые сэмплы : Да
Интерфейс : Встроенный Win32-интерфейс для Win NT/2000
Выходной формат : Внутренние WAV-операции
Формат сэмплов : 44.100 Гц; 16 бит; стерео
TOC извлечённого CD
Трек | Старт | Длительность | Начальный сектор | Конечный сектор
---------------------------------------------------------------------
1 | 0:00.00 | 6:57.68 | 0 | 31342
2 | 6:57.68 | 7:06.06 | 31343 | 63298
3 | 14:03.74 | 5:59.60 | 63299 | 90283
4 | 20:03.59 | 9:03.40 | 90284 | 131048
5 | 29:07.24 | 5:25.27 | 131049 | 155450
6 | 34:32.51 | 7:32.04 | 155451 | 189354
7 | 42:04.55 | 7:10.30 | 189355 | 221634
8 | 49:15.10 | 6:25.00 | 221635 | 250509
9 | 55:40.10 | 6:28.02 | 250510 | 279611
10 | 62:08.12 | 4:53.37 | 279612 | 301623
11 | 67:01.49 | 4:55.16 | 301624 | 323764
Характеристики диапазона извлечения и сообщения об ошибках
Выбранный диапазон
Имя файла D:\All\Music\Various - I Love Disco 80's Vol.6\Various - I Love Disco 80's Vol.6 CD 2\Various - I Love Disco 80's Vol.6 CD 2.wav
Пиковый уровень 99.9 %
Качество диапазона 99.9 %
CRC теста E0DBEF34
CRC копии E0DBEF34
Копирование... OK
Ошибок не произошло
AccurateRip: сводка
Трек 1 нет в базе данных
Трек 2 нет в базе данных
Трек 3 нет в базе данных
Трек 4 нет в базе данных
Трек 5 нет в базе данных
Трек 6 нет в базе данных
Трек 7 нет в базе данных
Трек 8 нет в базе данных
Трек 9 нет в базе данных
Трек 10 нет в базе данных
Трек 11 нет в базе данных
Ни одного трека нет в базе AccurateRip
Конец отчёта
[Торрент-статистика]
[Профиль]  [ЛС] 
Показать сообщения:    
Ответить на тему

Текущее время: Сегодня 03:33

Часовой пояс: GMT + 4



Вы не можете начинать темы
Вы не можете отвечать на сообщения
Вы не можете редактировать свои сообщения
Вы не можете удалять свои сообщения
Вы не можете голосовать в опросах
Вы не можете прикреплять файлы к сообщениям
Вы не можете скачивать файлы