VA - I Love Disco 80's Vol.5 (2 CD) - 2008, (Disco/Italo-Disco), FLAC (image+.cue), lossless

Ответить на тему
 
Автор
Сообщение

Admiral ®

Пол:

Стаж: 7 лет 2 месяца

Сообщений: 606

Репутация: 146 [+] [-]

Пост 15-Авг-2014 01:43

[Цитировать] 

--Various Artists - I Love Disco 80's Vol.5 (2 CD)-- Жанр: Disco/Italo-Disco
Год выпуска диска: 2008
Производитель диска: Spain - Blanco Y Negro
Аудио кодек: FLAC
Тип рипа: image+.cue
Битрейт аудио: lossless
Продолжительность: 1:16:38+1:09:49
Трэклист:
CD 1 :
01. Ray Parker Jr. - Ghostbusters 6:10
02. Cyndi Lauper - Girls Just Want To Have Fun 6:06
03. Culture Club - It's A Miracle 9:10
04. De Blanc - Hush 4:33
05. Wham ! - Last Christmas 6:45
06. Gazebo - Masterpiece 9:40
07. Fancy - Flames Of Love 5:21
08. Sandra - Everlasting Love 7:19
09. Big Ben Tribe - Heroes 6:53
10. Mandy Smith - I Just Can't Wait 7:17
11. Ofra Haza - Galbi 7:25

CD 2 :
01. Third World - One More Time 7:13
02. Miami Sound Machine - Dr.Beat 6:29
03. Azul Y Negro - Me Estoy Volviendo Loco 6:08
04. Zara-Thustra - Magic Nights 8:35
05. Hazell Dean - Love Pains 6:27
06. C.C.Catch - Are You Man Enough 6:04
07. David Lyme - Bambina 5:30
08. Green Ice - A Happier Time 7:08
09. Monte Kristo - The Girl Of Lucifer 5:32
10. Alan Cook - Do You Want To Stay 5:30
11. Daydream - In The Night 5:13

Back

Отчеты EAC

Отчет EAC - I Love Disco 80's Vol.5 CD 1

Exact Audio Copy V0.99 prebeta 5 from 4. May 2009
Отчёт EAC об извлечении, выполненном 19. января 2010, 15:29
Various / I Love Disco 80's Vol.5 CD 1
Дисковод: Optiarc DVD RW AD-5200A Adapter: 0 ID: 0
Режим чтения : Достоверность
Использование точного потока : Да
Отключение кэша аудио : Да
Использование указателей C2 : Нет
Коррекция смещения при чтении : 48
Способность читать области Lead-in и Lead-out : Нет
Заполнение пропущенных сэмплов тишиной : Да
Удаление блоков с тишиной в начале и конце : Нет
При вычислениях CRC использовались нулевые сэмплы : Да
Интерфейс : Установленный внешний ASPI-интерфейс
Выходной формат : Внутренние WAV-операции
Формат сэмплов : 44.100 Гц; 16 бит; стерео
TOC извлечённого CD
Трек | Старт | Длительность | Начальный сектор | Конечный сектор
---------------------------------------------------------------------
1 | 0:00.00 | 6:09.40 | 0 | 27714
2 | 6:09.40 | 6:06.00 | 27715 | 55164
3 | 12:15.40 | 9:10.00 | 55165 | 96414
4 | 21:25.40 | 4:33.00 | 96415 | 116889
5 | 25:58.40 | 6:45.00 | 116890 | 147264
6 | 32:43.40 | 9:40.00 | 147265 | 190764
7 | 42:23.40 | 5:20.58 | 190765 | 214822
8 | 47:44.23 | 7:19.00 | 214823 | 247747
9 | 55:03.23 | 6:52.54 | 247748 | 278701
10 | 61:56.02 | 7:17.00 | 278702 | 311476
11 | 69:13.02 | 7:25.00 | 311477 | 344851
Характеристики диапазона извлечения и сообщения об ошибках
Выбранный диапазон
Имя файла G:\All\Music\I Love Disco 80's Vol.5 CD 1\Various - I Love Disco 80's Vol.5 CD 1.wav
Пиковый уровень 100.0 %
Качество диапазона 100.0 %
CRC теста 28B1A354
CRC копии 28B1A354
Копирование... OK
Ошибок не произошло
AccurateRip: сводка
Трек 1 нет в базе данных
Трек 2 нет в базе данных
Трек 3 нет в базе данных
Трек 4 нет в базе данных
Трек 5 нет в базе данных
Трек 6 нет в базе данных
Трек 7 нет в базе данных
Трек 8 нет в базе данных
Трек 9 нет в базе данных
Трек 10 нет в базе данных
Трек 11 нет в базе данных
Ни одного трека нет в базе AccurateRip
Конец отчёта

Отчет EAC - I Love Disco 80's Vol.5 CD 2

Exact Audio Copy V0.99 prebeta 5 from 4. May 2009
Отчёт EAC об извлечении, выполненном 19. января 2010, 18:06
Various / I Love Disco 80's Vol.5 CD 2
Дисковод: Optiarc DVD RW AD-5200A Adapter: 0 ID: 0
Режим чтения : Достоверность
Использование точного потока : Да
Отключение кэша аудио : Да
Использование указателей C2 : Нет
Коррекция смещения при чтении : 48
Способность читать области Lead-in и Lead-out : Нет
Заполнение пропущенных сэмплов тишиной : Да
Удаление блоков с тишиной в начале и конце : Нет
При вычислениях CRC использовались нулевые сэмплы : Да
Интерфейс : Установленный внешний ASPI-интерфейс
Выходной формат : Внутренние WAV-операции
Формат сэмплов : 44.100 Гц; 16 бит; стерео
TOC извлечённого CD
Трек | Старт | Длительность | Начальный сектор | Конечный сектор
---------------------------------------------------------------------
1 | 0:00.00 | 7:13.16 | 0 | 32490
2 | 7:13.16 | 6:29.00 | 32491 | 61665
3 | 13:42.16 | 6:08.28 | 61666 | 89293
4 | 19:50.44 | 8:34.73 | 89294 | 127916
5 | 28:25.42 | 6:26.72 | 127917 | 156938
6 | 34:52.39 | 6:04.17 | 156939 | 184255
7 | 40:56.56 | 5:30.01 | 184256 | 209006
8 | 46:26.57 | 7:08.05 | 209007 | 241111
9 | 53:34.62 | 5:31.74 | 241112 | 266010
10 | 59:06.61 | 5:30.00 | 266011 | 290760
11 | 64:36.61 | 5:13.05 | 290761 | 314240
Характеристики диапазона извлечения и сообщения об ошибках
Выбранный диапазон
Имя файла G:\All\Music\I Love Disco 80's Vol.5 CD 2\Various - I Love Disco 80's Vol.5 CD 2.wav
Пиковый уровень 100.0 %
Качество диапазона 100.0 %
CRC теста 87E1736A
CRC копии 87E1736A
Копирование... OK
Ошибок не произошло
AccurateRip: сводка
Трек 1 нет в базе данных
Трек 2 нет в базе данных
Трек 3 нет в базе данных
Трек 4 нет в базе данных
Трек 5 нет в базе данных
Трек 6 нет в базе данных
Трек 7 нет в базе данных
Трек 8 нет в базе данных
Трек 9 нет в базе данных
Трек 10 нет в базе данных
Трек 11 нет в базе данных
Ни одного трека нет в базе AccurateRip
Конец отчёта
[Торрент-статистика]
[Профиль]  [ЛС] 
Показать сообщения:    
Ответить на тему

Текущее время: Сегодня 07:04

Часовой пояс: GMT + 4



Вы не можете начинать темы
Вы не можете отвечать на сообщения
Вы не можете редактировать свои сообщения
Вы не можете удалять свои сообщения
Вы не можете голосовать в опросах
Вы не можете прикреплять файлы к сообщениям
Вы не можете скачивать файлы