Gino Soccio - The Best Of … - 1994, (Disco), FLAC (image+.cue), lossless

Ответить на тему
 
Автор
Сообщение

Admiral ®

Пол:

Стаж: 7 лет 2 месяца

Сообщений: 606

Репутация: 146 [+] [-]

Пост 24-Июл-2014 11:11

[Цитировать] 

--Gino Soccio - The Best Of …-- Жанр: Disco
Год выпуска диска: 1994
Производитель диска: Canada - Unidisc
Аудио кодек: FLAC
Тип рипа: image+.cue
Битрейт аудио: lossless
Продолжительность: 01:17:43
Трэклист:
01. Dancer 8:29
02. Try It Out 6:10
03. The Visitors (Remix) 5:35
04. Turn It Around (Extended Mix) 7:00
05. It's Alright 7:37
06. Human Nature 5:58
07. S-Beat 5:16
08. Hold Tight 5:18
09. Les Visiteurs 4:18
10. Remember (Remix) 10:09
11. Megamix (Edited Version) 11:53

- 11.a. S-Beat
- 11.b. Try It Out
- 11.c. Dancer
- 11.d. It's Alright
- 11.e. Remember
- 11.f. Turn It Around
- 11.g. Human Nature

Back

Отчёт EAC

Exact Audio Copy V0.99 prebeta 5 from 4. May 2009
Отчёт EAC об извлечении, выполненном 31. октября 2009, 12:22
Gino Soccio / The Best Of...
Дисковод: Optiarc DVD RW AD-5200A Adapter: 0 ID: 0
Режим чтения : Достоверность
Использование точного потока : Да
Отключение кэша аудио : Да
Использование указателей C2 : Нет
Коррекция смещения при чтении : 48
Способность читать области Lead-in и Lead-out : Нет
Заполнение пропущенных сэмплов тишиной : Да
Удаление блоков с тишиной в начале и конце : Нет
При вычислениях CRC использовались нулевые сэмплы : Да
Интерфейс : Установленный внешний ASPI-интерфейс
Выходной формат : Внутренние WAV-операции
Формат сэмплов : 44.100 Гц; 16 бит; стерео
TOC извлечённого CD
Трек | Старт | Длительность | Начальный сектор | Конечный сектор
---------------------------------------------------------------------
1 | 0:00.00 | 8:28.45 | 0 | 38144
2 | 8:28.45 | 6:10.32 | 38145 | 65926
3 | 14:39.02 | 5:35.35 | 65927 | 91086
4 | 20:14.37 | 6:59.55 | 91087 | 122566
5 | 27:14.17 | 7:36.58 | 122567 | 156824
6 | 34:51.00 | 5:57.50 | 156825 | 183649
7 | 40:48.50 | 5:16.20 | 183650 | 207369
8 | 46:04.70 | 5:18.35 | 207370 | 231254
9 | 51:23.30 | 4:17.70 | 231255 | 250599
10 | 55:41.25 | 10:08.47 | 250600 | 296246
11 | 65:49.72 | 11:53.05 | 296247 | 349726
Характеристики диапазона извлечения и сообщения об ошибках
Выбранный диапазон
Имя файла E:\Gino Soccio - The Best Of\Gino Soccio - The Best Of....wav
Пиковый уровень 100.0 %
Качество диапазона 99.9 %
CRC теста B8B95702
CRC копии B8B95702
Копирование... OK
Ошибок не произошло
AccurateRip: сводка
Трек 1 точность не определена (достоверность 1) [4A65E26A], AccurateRip вернул [F1B126A7]
Трек 2 точное извлечение (доверие 1) [F110A1FA]
Трек 3 точное извлечение (доверие 1) [CCFF4C38]
Трек 4 точное извлечение (доверие 1) [E0DEB0CA]
Трек 5 точное извлечение (доверие 1) [9A596FAD]
Трек 6 точное извлечение (доверие 1) [5EF7A261]
Трек 7 точное извлечение (доверие 1) [5D74C8E8]
Трек 8 точное извлечение (доверие 1) [E02AAE8D]
Трек 9 точное извлечение (доверие 1) [B3B3FB99]
Трек 10 точное извлечение (доверие 1) [DD314867]
Трек 11 точное извлечение (доверие 1) [5B78796C]
10 трек(и) скопированы точно
1 трек(и) не удалось проверить на точность
Некоторые треки не прошли проверку на точность
Конец отчёта
[Торрент-статистика]
[Профиль]  [ЛС] 
Показать сообщения:    
Ответить на тему

Текущее время: Сегодня 14:12

Часовой пояс: GMT + 4



Вы не можете начинать темы
Вы не можете отвечать на сообщения
Вы не можете редактировать свои сообщения
Вы не можете удалять свои сообщения
Вы не можете голосовать в опросах
Вы не можете прикреплять файлы к сообщениям
Вы не можете скачивать файлы