John Sauli - Tonight Is The Night - 1988, (Italo-Disco/Synth-Pop), APE (image+.cue), lossless

Ответить на тему
 
Автор
Сообщение

Admiral ®

Пол:

Стаж: 7 лет 2 месяца

Сообщений: 606

Репутация: 146 [+] [-]

Пост 17-Июл-2014 12:47

[Цитировать] 

--John Sauli - Tonight Is The Night-- Жанр: Italo-Disco/Synth-Pop
Год выпуска диска: 1988
Производитель диска: Japan - Canyon International
Аудио кодек: APE
Тип рипа: image+.cue
Битрейт аудио: lossless
Продолжительность: 00:51:35
Трэклист:
01. Sweet Conversation 5:34
02. Miss Liberty 6:09
03. Beach Love 3:35
04. Rofo's Theme 3:21
05. Move It On 6:26
06. Tonight Is The Night 4:55
07. Flashlight On A Disconight 4:22
08. Quanto Cuesta 3:47
09. Megamix 9:14
10. I Want You 4:13

Back

Отчет EAC

Exact Audio Copy V0.99 prebeta 5 from 4. May 2009
Отчёт EAC об извлечении, выполненном 8. сентября 2009, 21:32
John Sauli / Tonight Is The Night
Дисковод: Optiarc DVD RW AD-5200A Adapter: 0 ID: 0
Режим чтения : Достоверность
Использование точного потока : Да
Отключение кэша аудио : Да
Использование указателей C2 : Нет
Коррекция смещения при чтении : 48
Способность читать области Lead-in и Lead-out : Нет
Заполнение пропущенных сэмплов тишиной : Да
Удаление блоков с тишиной в начале и конце : Нет
При вычислениях CRC использовались нулевые сэмплы : Да
Интерфейс : Установленный внешний ASPI-интерфейс
Выходной формат : Внутренние WAV-операции
Формат сэмплов : 44.100 Гц; 16 бит; стерео
TOC извлечённого CD
Трек | Старт | Длительность | Начальный сектор | Конечный сектор
---------------------------------------------------------------------
1 | 0:00.00 | 5:34.02 | 0 | 25051
2 | 5:34.02 | 6:08.40 | 25052 | 52691
3 | 11:42.42 | 3:34.43 | 52692 | 68784
4 | 15:17.10 | 3:21.27 | 68785 | 83886
5 | 18:38.37 | 6:25.45 | 83887 | 112806
6 | 25:04.07 | 4:55.20 | 112807 | 134951
7 | 29:59.27 | 4:22.28 | 134952 | 154629
8 | 34:21.55 | 3:47.37 | 154630 | 171691
9 | 38:09.17 | 9:14.25 | 171692 | 213266
10 | 47:23.42 | 4:12.70 | 213267 | 232236
Характеристики диапазона извлечения и сообщения об ошибках
Выбранный диапазон
Имя файла E:\John Sauli - Tonight Is The Night\John Sauli - Tonight Is The Night.wav
Пиковый уровень 100.0 %
Качество диапазона 99.9 %
CRC теста BA4139CF
CRC копии BA4139CF
Копирование... OK
Ошибок не произошло
AccurateRip: сводка
Трек 1 нет в базе данных
Трек 2 нет в базе данных
Трек 3 нет в базе данных
Трек 4 нет в базе данных
Трек 5 нет в базе данных
Трек 6 нет в базе данных
Трек 7 нет в базе данных
Трек 8 нет в базе данных
Трек 9 нет в базе данных
Трек 10 нет в базе данных
Ни одного трека нет в базе AccurateRip
Конец отчёта
[Торрент-статистика]
[Профиль]  [ЛС] 
Показать сообщения:    
Ответить на тему

Текущее время: Сегодня 08:58

Часовой пояс: GMT + 4



Вы не можете начинать темы
Вы не можете отвечать на сообщения
Вы не можете редактировать свои сообщения
Вы не можете удалять свои сообщения
Вы не можете голосовать в опросах
Вы не можете прикреплять файлы к сообщениям
Вы не можете скачивать файлы