Linda Jo Rizzo - Best Of - 1999, (Italo-Disco), FLAC (image+.cue), lossless

Ответить на тему
 
Автор
Сообщение

Admiral ®

Пол:

Стаж: 7 лет 2 месяца

Сообщений: 606

Репутация: 146 [+] [-]

Пост 17-Июл-2014 12:44

[Цитировать] 

--Linda Jo Rizzo - Best Of -- Жанр: Italo-Disco
Страна-производитель диска: Germany
Год издания диска: 1999
Издатель (лейбл): ZYX Music
Номер по каталогу: ZYX 10072-2
Аудио кодек: FLAC (*.flac)
Тип рипа: image+.cue
Битрейт аудио: lossless
Продолжительность: 01:10:01
Наличие сканов в содержимом раздачи: да
Трэклист:
01. You're My First, You're My Last 5:42
02. I've Got The Night 5:44
03. Heartflash (Tonight) 6:02
04. Just One World 5:16
05. Perfect Love 6:10
06. No Lies 5:22
07. Keep Trying (Remix '89) 5:49
08. Listen To The DJ 3:59
09. Passion 6:52
10. Hey Joe 5:25
11. Keep Trying (Original) 6:02
12. Passion (Remix feat.Ruth Kronenfeld) 3:20
13. All Over (Remix) 4:20

Back

Отчет EAC

Exact Audio Copy V0.99 prebeta 5 from 4. May 2009
Отчёт EAC об извлечении, выполненном 20. ноября 2010, 20:29
Linda Jo Rizzo / Best Of
Дисковод: Optiarc DVD RW AD-5200A Adapter: 0 ID: 0
Режим чтения : Достоверность
Использование точного потока : Да
Отключение кэша аудио : Да
Использование указателей C2 : Нет
Коррекция смещения при чтении : 48
Способность читать области Lead-in и Lead-out : Нет
Заполнение пропущенных сэмплов тишиной : Да
Удаление блоков с тишиной в начале и конце : Нет
При вычислениях CRC использовались нулевые сэмплы : Да
Интерфейс : Встроенный Win32-интерфейс для Win NT/2000
Выходной формат : Внутренние WAV-операции
Формат сэмплов : 44.100 Гц; 16 бит; стерео
TOC извлечённого CD
Трек | Старт | Длительность | Начальный сектор | Конечный сектор
---------------------------------------------------------------------
1 | 0:00.00 | 5:41.67 | 0 | 25641
2 | 5:41.67 | 5:44.31 | 25642 | 51472
3 | 11:26.23 | 6:01.41 | 51473 | 78588
4 | 17:27.64 | 5:16.09 | 78589 | 102297
5 | 22:43.73 | 6:10.10 | 102298 | 130057
6 | 28:54.08 | 5:21.40 | 130058 | 154172
7 | 34:15.48 | 5:48.54 | 154173 | 180326
8 | 40:04.27 | 3:58.42 | 180327 | 198218
9 | 44:02.69 | 6:51.43 | 198219 | 229086
10 | 50:54.37 | 5:25.07 | 229087 | 253468
11 | 56:19.44 | 6:02.10 | 253469 | 280628
12 | 62:21.54 | 3:20.21 | 280629 | 295649
13 | 65:42.00 | 4:19.38 | 295650 | 315112
Характеристики диапазона извлечения и сообщения об ошибках
Выбранный диапазон
Имя файла D:\Linda Jo Rizzo - Best Of\Linda Jo Rizzo - Best Of.wav
Пиковый уровень 100.0 %
Качество диапазона 99.9 %
CRC теста 7B3C3A3C
CRC копии 7B3C3A3C
Копирование... OK
Ошибок не произошло
AccurateRip: сводка
Трек 1 точное извлечение (доверие 2) [677A2F64]
Трек 2 точное извлечение (доверие 3) [3DCF225D]
Трек 3 точное извлечение (доверие 2) [0F809E92]
Трек 4 точное извлечение (доверие 3) [106734FB]
Трек 5 точное извлечение (доверие 3) [A6E80B0E]
Трек 6 точное извлечение (доверие 3) [B186CF24]
Трек 7 точное извлечение (доверие 2) [47E97C41]
Трек 8 точное извлечение (доверие 2) [97935836]
Трек 9 точное извлечение (доверие 2) [A61CF373]
Трек 10 точное извлечение (доверие 2) [17BCC6DF]
Трек 11 точное извлечение (доверие 2) [2024A5A7]
Трек 12 точное извлечение (доверие 2) [BE5A9968]
Трек 13 точное извлечение (доверие 2) [189EF73C]
Все треки извлечены точно
Конец отчёта
[Торрент-статистика]
[Профиль]  [ЛС] 
Показать сообщения:    
Ответить на тему

Текущее время: Сегодня 01:59

Часовой пояс: GMT + 4



Вы не можете начинать темы
Вы не можете отвечать на сообщения
Вы не можете редактировать свои сообщения
Вы не можете удалять свои сообщения
Вы не можете голосовать в опросах
Вы не можете прикреплять файлы к сообщениям
Вы не можете скачивать файлы