Belinda Carlisle (2CD) - Heaven On Earth + Runaway Horses - (1987+1989), (Pop), FLAC (image+.cue), lossless

Ответить на тему
 
Автор
Сообщение

Admiral ®

Пол:

Стаж: 7 лет 2 месяца

Сообщений: 606

Репутация: 146 [+] [-]

Пост 15-Июл-2014 15:40

[Цитировать] 

--Belinda Carlisle (2CD)-Heaven On Earth (1987) + Runaway Horses (1989)-- Жанр: Pop, Soft Rock, Pop Rock
Страна-производитель диска: UK
Год издания: 1987 + 1989
Издатель (лейбл): Virgin
Номер по каталогу: CDV 2496 + CDV 2599
Страна: Great Britain
Аудиокодек: FLAC (*.flac)
Тип рипа: image+.cue
Битрейт аудио: lossless
Продолжительность: 01:31:34
Наличие сканов в содержимом раздачи: да

Belinda Carlise - Heaven On Earth (1987)

Жанр: Pop-Music, Soft Rock, Pop Rock
Страна-производитель диска: UK
Год издания: 1987
Издатель (лейбл): VirginНомер по каталогу: CDV 2496
Страна: Great Britain
Аудиокодек: FLAC (*.flac)
Тип рипа: image+.cue
Битрейт аудио: lossless
Продолжительность: 00:43:27
Наличие сканов в содержимом раздачи: да
Треклист:
01. Heaven Is A Place On Earth 4:05
02. Circle In The Sand 4:26
03. I Feel Free 4:49
04. Should I Let You In? 4:15
05. World Without You 4:42
06. I Get Weak 4:50
07. We Can Change 3:45
08. Fool For Love 3:57
09. Nobody Owns Me 3:12
10. Love Never Dies... 5:16

EAC

Exact Audio Copy V1.0 beta 3 from 29. August 2011
Отчёт EAC об извлечении, выполненном 12. сентября 2012, 2:31
Belinda Carlisle / Heaven On Earth
Дисковод: PLEXTOR CD-R PREMIUM2 Adapter: 0 ID: 0
Режим чтения : Достоверность
Использование точного потока : Да
Отключение кэша аудио : Да
Использование указателей C2 : Нет
Коррекция смещения при чтении : 30
Способность читать области Lead-in и Lead-out : Нет
Заполнение пропущенных сэмплов тишиной : Да
Удаление блоков с тишиной в начале и конце : Нет
При вычислениях CRC использовались нулевые сэмплы : Да
Интерфейс : Встроенный Win32-интерфейс для Win NT/2000
Выходной формат : Внутренние WAV-операции
Формат сэмплов : 44.100 Гц; 16 бит; стерео
TOC извлечённого CD
Трек | Старт | Длительность | Начальный сектор | Конечный сектор
---------------------------------------------------------------------
1 | 0:00.00 | 4:07.30 | 0 | 18554
2 | 4:07.30 | 4:26.20 | 18555 | 38524
3 | 8:33.50 | 4:49.32 | 38525 | 60231
4 | 13:23.07 | 4:17.00 | 60232 | 79506
5 | 17:40.07 | 4:43.43 | 79507 | 100774
6 | 22:23.50 | 4:52.25 | 100775 | 122699
7 | 27:16.00 | 3:45.57 | 122700 | 139631
8 | 31:01.57 | 3:55.70 | 139632 | 157326
9 | 34:57.52 | 3:13.40 | 157327 | 171841
10 | 38:11.17 | 5:15.28 | 171842 | 195494
Характеристики диапазона извлечения и сообщения об ошибках
Выбранный диапазон
Имя файла C:\Belinda Carlise - Heavn On Earth (Virgin CDV 2496)\Belinda Carlisle - Heaven On Earth.wav
Пиковый уровень 100.0 %
Скорость извлечения 5.5 X
Качество диапазона 100.0 %
CRC теста A4341524
CRC копии A4341524
Копирование... OK
Ошибок не произошло
AccurateRip: сводка
Трек 1 : извлечено точно (доверие 4) [BAF184F8] (AR v2)
Трек 2 : извлечено точно (доверие 4) [2B8D6E23] (AR v2)
Трек 3 : извлечено точно (доверие 4) [127A4A12] (AR v2)
Трек 4 : извлечено точно (доверие 4) [FD61216E] (AR v2)
Трек 5 : извлечено точно (доверие 4) [3816F515] (AR v2)
Трек 6 : извлечено точно (доверие 4) [DF7937D3] (AR v2)
Трек 7 : извлечено точно (доверие 4) [185BAA68] (AR v2)
Трек 8 : извлечено точно (доверие 4) [8E755273] (AR v2)
Трек 9 : извлечено точно (доверие 4) [497712E2] (AR v2)
Трек 10 : извлечено точно (доверие 4) [CD672064] (AR v2)
Все треки извлечены точно
Конец отчёта

Belinda Carlisle - Runaway Horses (1989)

Жанр: Pop-Music, Soft Rock, Pop Rock
Страна-производитель диска: UK
Год издания: 1989
Издатель (лейбл): Virgin
Номер по каталогу: CDV 2599
Страна: Great Britain
Аудиокодек: FLAC (*.flac)
Тип рипа: image+.cue
Битрейт аудио: lossless
Продолжительность: 00:48:08
Наличие сканов в содержимом раздачи: да
Треклист:
01. Leave A Light On 4:37
02. Runaway Horses 4:44
03. Vision Of You 4:42
04. Summer Rain 5:32
05. La Luna 4:45
06. (We Want) The Same Thing 3:59
07. Deep Deep Ocean 4:05
08. Valentine 5:04
09. Whatever It Takes 4:50
10. Shades Of Michaelangelo 5:49

EAC

Exact Audio Copy V1.0 beta 3 from 29. August 2011
Отчёт EAC об извлечении, выполненном 12. сентября 2012, 9:02
BELINDA CARLISLE / RUNAWAY HORSES
Дисковод: PLEXTOR CD-R PREMIUM2 Adapter: 0 ID: 0
Режим чтения : Достоверность
Использование точного потока : Да
Отключение кэша аудио : Да
Использование указателей C2 : Нет
Коррекция смещения при чтении : 30
Способность читать области Lead-in и Lead-out : Нет
Заполнение пропущенных сэмплов тишиной : Да
Удаление блоков с тишиной в начале и конце : Нет
При вычислениях CRC использовались нулевые сэмплы : Да
Интерфейс : Встроенный Win32-интерфейс для Win NT/2000
Выходной формат : Внутренние WAV-операции
Формат сэмплов : 44.100 Гц; 16 бит; стерео
TOC извлечённого CD
Трек | Старт | Длительность | Начальный сектор | Конечный сектор
---------------------------------------------------------------------
1 | 0:00.33 | 4:37.05 | 33 | 20812
2 | 4:37.38 | 4:44.12 | 20813 | 42124
3 | 9:21.50 | 4:41.60 | 42125 | 63259
4 | 14:03.35 | 5:32.30 | 63260 | 88189
5 | 19:35.65 | 4:45.13 | 88190 | 109577
6 | 24:21.03 | 3:59.15 | 109578 | 127517
7 | 28:20.18 | 4:04.65 | 127518 | 145882
8 | 32:25.08 | 5:04.27 | 145883 | 168709
9 | 37:29.35 | 4:49.40 | 168710 | 190424
10 | 42:19.00 | 5:49.33 | 190425 | 216632
Характеристики диапазона извлечения и сообщения об ошибках
Выбранный диапазон
Имя файла E:\Belinta Carlisle - Runaway Horses (Virgin CDV 2599)\BELINDA CARLISLE - RUNAWAY HORSES.wav
Пиковый уровень 100.0 %
Скорость извлечения 5.6 X
Качество диапазона 100.0 %
CRC теста C9B4A480
CRC копии C9B4A480
Копирование... OK
Ошибок не произошло
AccurateRip: сводка
Трек 1 : извлечено точно (доверие 4) [A5B50D09] (AR v2)
Трек 2 : извлечено точно (доверие 4) [AAAC6727] (AR v2)
Трек 3 : извлечено точно (доверие 4) [59711721] (AR v2)
Трек 4 : извлечено точно (доверие 4) [06096E4C] (AR v2)
Трек 5 : извлечено точно (доверие 4) [09DD28E3] (AR v2)
Трек 6 : извлечено точно (доверие 4) [D0D7E058] (AR v2)
Трек 7 : извлечено точно (доверие 4) [9AA6EEC4] (AR v2)
Трек 8 : извлечено точно (доверие 4) [31B0F8FD] (AR v2)
Трек 9 : извлечено точно (доверие 4) [E30D7F3E] (AR v2)
Трек 10 : извлечено точно (доверие 4) [AB29C8EA] (AR v2)
Все треки извлечены точно
Конец отчёта
[Торрент-статистика]
[Профиль]  [ЛС] 
Показать сообщения:    
Ответить на тему

Текущее время: Сегодня 05:38

Часовой пояс: GMT + 4



Вы не можете начинать темы
Вы не можете отвечать на сообщения
Вы не можете редактировать свои сообщения
Вы не можете удалять свои сообщения
Вы не можете голосовать в опросах
Вы не можете прикреплять файлы к сообщениям
Вы не можете скачивать файлы