Sandra (3CD) (Austria Press) - 1985-1988, (Europop, Synth-pop), FLAC (image+.cue), lossless

Ответить на тему
 
Автор
Сообщение

Admiral ®

Пол:

Стаж: 7 лет 2 месяца

Сообщений: 606

Репутация: 146 [+] [-]

Пост 15-Июл-2014 13:36

[Цитировать] 

--Sandra (3CD) = The Long Play + Mirrors+ Into A Secret Land
(Austria Picture CD)
-- Жанр: Pop, Europop, Synth-pop
Страна-производитель диска: Austria
Год издания: 1992
Издатель (лейбл): Virgin Picture CD
Номер по каталогу: 0777 7 86968 2 7 + 0777 7 86965 2 0 + 0777 7 86967 2 8
Страна: Germany
Аудиокодек: FLAC (*.flac)
Тип рипа: image+.cue
Битрейт аудио: lossless
Продолжительность: 01:49:08
Наличие сканов в содержимом раздачи: да

Sandra - The Long Play' 1985

Жанр: Pop, Europop, Synth-pop
Страна-производитель диска: Austria
Год издания: 1985
Издатель (лейбл): Virgin Picture CD
Номер по каталогу: 0777 7 86968 2 7
Страна: Germany
Аудиокодек: FLAC (*.flac)
Тип рипа: image+.cue
Битрейт аудио: lossless
Продолжительность: 00:36:43
Наличие сканов в содержимом раздачи: да
Треклист:
01. In The Heat Of The Night 5:20
02. On The Tray (Seven Years) 3:46
03. Little Girl 3:13
04. You And I 6:00
05. (I'll Never Be) Maria Magdalena 5:57
06. Heartbeat (That's Emotion) 4:55
07. Sisters And Brothers 3:24
08. Change Your Mind 4:02

EAC

Exact Audio Copy V1.0 beta 3 from 29. August 2011
Отчёт EAC об извлечении, выполненном 29. июля 2012, 2:51
Sandra / The Long Play
Дисковод: PLEXTOR CD-R PREMIUM2 Adapter: 0 ID: 0
Режим чтения : Достоверность
Использование точного потока : Да
Отключение кэша аудио : Да
Использование указателей C2 : Нет
Коррекция смещения при чтении : 30
Способность читать области Lead-in и Lead-out : Нет
Заполнение пропущенных сэмплов тишиной : Да
Удаление блоков с тишиной в начале и конце : Нет
При вычислениях CRC использовались нулевые сэмплы : Да
Интерфейс : Встроенный Win32-интерфейс для Win NT/2000
Выходной формат : Внутренние WAV-операции
Формат сэмплов : 44.100 Гц; 16 бит; стерео
TOC извлечённого CD
Трек | Старт | Длительность | Начальный сектор | Конечный сектор
---------------------------------------------------------------------
1 | 0:00.32 | 5:21.58 | 32 | 24164
2 | 5:22.15 | 3:46.40 | 24165 | 41154
3 | 9:08.55 | 3:13.20 | 41155 | 55649
4 | 12:22.00 | 6:00.55 | 55650 | 82704
5 | 18:22.55 | 5:57.15 | 82705 | 109494
6 | 24:19.70 | 4:55.65 | 109495 | 131684
7 | 29:15.60 | 3:24.40 | 131685 | 147024
8 | 32:40.25 | 4:02.62 | 147025 | 165236
Характеристики диапазона извлечения и сообщения об ошибках
Выбранный диапазон
Имя файла E:\Sandra - The Long Play 1985 (Virgin Austria 0777 7 86968 2 7 Picturs CD)\Sandra - The Long Play.wav
Пиковый уровень 84.0 %
Скорость извлечения 5.4 X
Качество диапазона 100 %
CRC теста 6C00BD25
CRC копии 6C00BD25
Копирование... OK
Ошибок не произошло
AccurateRip: сводка
Трек 1 : извлечено точно (доверие 1) [50621C9B] (AR v1)
Трек 2 : извлечено точно (доверие 1) [71220B9F] (AR v1)
Трек 3 : извлечено точно (доверие 1) [B7F649BC] (AR v1)
Трек 4 : извлечено точно (доверие 1) [62C6E3F1] (AR v1)
Трек 5 : извлечено точно (доверие 1) [A26A1380] (AR v1)
Трек 6 : извлечено точно (доверие 1) [97E965DA] (AR v1)
Трек 7 : извлечено точно (доверие 1) [FAF8DFDC] (AR v1)
Трек 8 : извлечено точно (доверие 1) [9353696F] (AR v1)
Все треки извлечены точно
Конец отчёта

Sandra - Mirrors' 1986

Жанр: Pop, Europop, Synth-pop
Страна-производитель диска: Austria
Год издания: 1986
Издатель (лейбл): Virgin Picture CD
Номер по каталогу: 0777 7 86965 2 0
Страна: Germany
Аудиокодек: FLAC (*.flac)
Тип рипа: image+.cue
Битрейт аудио: lossless
Продолжительность: 00:35:05
Наличие сканов в содержимом раздачи: да
Треклист:
01. The Second Day (Voice – Timothy Touchton) 0:35
02. Don't Cry (The Breakup Of The World) 4:55
03. Hi! Hi! Hi! 4:11
04. Midnight Man 3:04
05. You'll Be Mine 4:33
06. Innocent Love 5:24
07. Two Lovers Tonight 3:46
08. Mirror Of Love 4:14
09. Loreen 4:17

EAC

Exact Audio Copy V1.0 beta 3 from 29. August 2011
Отчёт EAC об извлечении, выполненном 29. июля 2012, 4:05
Sandra / Mirrors
Дисковод: PLEXTOR CD-R PREMIUM2 Adapter: 0 ID: 0
Режим чтения : Достоверность
Использование точного потока : Да
Отключение кэша аудио : Да
Использование указателей C2 : Нет
Коррекция смещения при чтении : 30
Способность читать области Lead-in и Lead-out : Нет
Заполнение пропущенных сэмплов тишиной : Да
Удаление блоков с тишиной в начале и конце : Нет
При вычислениях CRC использовались нулевые сэмплы : Да
Интерфейс : Встроенный Win32-интерфейс для Win NT/2000
Выходной формат : Внутренние WAV-операции
Формат сэмплов : 44.100 Гц; 16 бит; стерео
TOC извлечённого CD
Трек | Старт | Длительность | Начальный сектор | Конечный сектор
---------------------------------------------------------------------
1 | 0:00.32 | 0:36.45 | 32 | 2776
2 | 0:37.02 | 4:55.70 | 2777 | 24971
3 | 5:32.72 | 4:11.65 | 24972 | 43861
4 | 9:44.62 | 3:04.68 | 43862 | 57729
5 | 12:49.55 | 4:33.40 | 57730 | 78244
6 | 17:23.20 | 5:24.60 | 78245 | 102604
7 | 22:48.05 | 3:46.60 | 102605 | 119614
8 | 26:34.65 | 4:14.37 | 119615 | 138701
9 | 30:49.27 | 4:15.55 | 138702 | 157881
Характеристики диапазона извлечения и сообщения об ошибках
Выбранный диапазон
Имя файла E:\Sandra - Mirrors 1986 (Virgin Austria 0777 7 86965 2 0 Picturs CD)\Sandra - Mirrors.wav
Пиковый уровень 100.0 %
Скорость извлечения 5.5 X
Качество диапазона 100.0 %
CRC теста BD1C1A56
CRC копии BD1C1A56
Копирование... OK
Ошибок не произошло
AccurateRip: сводка
Трек 1 : извлечено точно (доверие 2) [F6E8CB74] (AR v1)
Трек 2 : извлечено точно (доверие 2) [EBBABEC7] (AR v1)
Трек 3 : извлечено точно (доверие 2) [95EC04CE] (AR v1)
Трек 4 : извлечено точно (доверие 2) [5C74B998] (AR v1)
Трек 5 : извлечено точно (доверие 2) [2A6E76FE] (AR v1)
Трек 6 : извлечено точно (доверие 2) [9CEE7D88] (AR v1)
Трек 7 : извлечено точно (доверие 2) [A8E55336] (AR v1)
Трек 8 : извлечено точно (доверие 2) [132DD92C] (AR v1)
Трек 9 : извлечено точно (доверие 2) [139DF84F] (AR v1)
Все треки извлечены точно
Конец отчёта

Sandra - Into A Secret Land' 1988

Жанр: Pop, Downtempo, Synth-pop
Страна-производитель диска: Austria
Год издания: 1988
Издатель (лейбл): Virgin Picture CD
Номер по каталогу: 0777 7 86967 2 8
Страна: Germany
Аудиокодек: FLAC (*.flac)
Тип рипа: image+.cue
Битрейт аудио: lossless
Продолжительность: 00:37:21
Наличие сканов в содержимом раздачи: да
Треклист:
01. Secret Land (4:46)
02. We'll Be Together (4:10)
03. Heaven Can Wait (4:04)
04. Just Like Diamonds (5:41)
05. Around My Heart (3:18)
06. Crazy Juliet (4:11)
07. La Vista De Luna (3:45)
08. Celebrate Your Life (3:28)
09. Children Of England (3:58)

EAC

Exact Audio Copy V1.0 beta 3 from 29. August 2011
Отчёт EAC об извлечении, выполненном 29. июля 2012, 3:26
Sandra / Into A Secret Land
Дисковод: PLEXTOR CD-R PREMIUM2 Adapter: 0 ID: 0
Режим чтения : Достоверность
Использование точного потока : Да
Отключение кэша аудио : Да
Использование указателей C2 : Нет
Коррекция смещения при чтении : 30
Способность читать области Lead-in и Lead-out : Нет
Заполнение пропущенных сэмплов тишиной : Да
Удаление блоков с тишиной в начале и конце : Нет
При вычислениях CRC использовались нулевые сэмплы : Да
Интерфейс : Встроенный Win32-интерфейс для Win NT/2000
Выходной формат : Внутренние WAV-операции
Формат сэмплов : 44.100 Гц; 16 бит; стерео
TOC извлечённого CD
Трек | Старт | Длительность | Начальный сектор | Конечный сектор
---------------------------------------------------------------------
1 | 0:00.32 | 4:46.20 | 32 | 21501
2 | 4:46.52 | 4:10.63 | 21502 | 40314
3 | 8:57.40 | 4:04.37 | 40315 | 58651
4 | 13:02.02 | 5:41.00 | 58652 | 84226
5 | 18:43.02 | 3:18.68 | 84227 | 99144
6 | 22:01.70 | 4:11.32 | 99145 | 118001
7 | 26:13.27 | 3:45.25 | 118002 | 134901
8 | 29:58.52 | 3:28.43 | 134902 | 150544
9 | 33:27.20 | 3:54.45 | 150545 | 168139
Характеристики диапазона извлечения и сообщения об ошибках
Выбранный диапазон
Имя файла E:\Sandra - Into A Secret Land 1988 (Virgin Austria 0777 7 86967 2 8 Picturs CD)\Sandra - Into A Secret Land.wav
Пиковый уровень 95.0 %
Скорость извлечения 5.3 X
Качество диапазона 100.0 %
CRC теста 5BD61584
CRC копии 5BD61584
Копирование... OK
Ошибок не произошло
AccurateRip: сводка
Трек 1 : извлечено точно (доверие 1) [F5C5B957] (AR v1)
Трек 2 : извлечено точно (доверие 1) [287EA22F] (AR v1)
Трек 3 : извлечено точно (доверие 1) [DB441BB0] (AR v1)
Трек 4 : извлечено точно (доверие 1) [96476D9C] (AR v1)
Трек 5 : извлечено точно (доверие 1) [64EFE3D5] (AR v1)
Трек 6 : извлечено точно (доверие 1) [CBE7E7AD] (AR v1)
Трек 7 : извлечено точно (доверие 1) [31A064A2] (AR v1)
Трек 8 : извлечено точно (доверие 1) [5A4968A6] (AR v1)
Трек 9 : извлечено точно (доверие 1) [DC8E7DF5] (AR v1)
Все треки извлечены точно
Конец отчёта
[Торрент-статистика]
[Профиль]  [ЛС] 
Показать сообщения:    
Ответить на тему

Текущее время: Сегодня 22:38

Часовой пояс: GMT + 4



Вы не можете начинать темы
Вы не можете отвечать на сообщения
Вы не можете редактировать свои сообщения
Вы не можете удалять свои сообщения
Вы не можете голосовать в опросах
Вы не можете прикреплять файлы к сообщениям
Вы не можете скачивать файлы