Александр Ломинский - Ты знала - 2012, (Pop), FLAC (image+.cue), lossless

Ответить на тему
 
Автор
Сообщение

Admiral ®

Пол:

Стаж: 7 лет 2 месяца

Сообщений: 606

Репутация: 146 [+] [-]

Пост 14-Июл-2014 22:58

[Цитировать] 

--Александр Ломинский - Ты знала-- Жанр: Pop
Страна-производитель диска: Россия
Год издания: 2012
Издатель (лейбл): Квадро-Диск
Номер по каталогу: KTL 12-680
Аудиокодек: FLAC (*.flac)
Тип рипа: image+.cue
Битрейт аудио: lossless
Продолжительность: 00:51:59
Наличие сканов в содержимом раздачи: да

01. Ты знала (3:36)
02. Украденное счастье (3:37)
03. Эхо любви (3:48)
04. Сердце ранимое (3:29)
05. Женщина из грёз (5:21)
06. Сладкий обман (3:23)
07. 5:45 (4:51)
08. Я твой пленник (3:40)
09. Вспоминай (3:30)
10. Только с тобой (3:06)
11. Разлитое вино (3:36)
12. Леди (3:46)
13. Слеза (2:58)
14. Полночь (3:18)

Отчёт EAC

Exact Audio Copy V0.99 prebeta 4 from 23. January 2008
Отчёт EAC об извлечении, выполненном 2. апреля 2012, 16:22
Александр Ломинский / Ты знала
Дисковод: ASUS DRW-1814BLT Adapter: 5 ID: 0
Режим чтения : Достоверность
Использование точного потока : Да
Отключение кэша аудио : Да
Использование указателей C2 : Нет
Коррекция смещения при чтении : 6
Способность читать области Lead-in и Lead-out : Нет
Заполнение пропущенных сэмплов тишиной : Да
Удаление блоков с тишиной в начале и конце : Нет
При вычислениях CRC использовались нулевые сэмплы : Да
Интерфейс : Установленный внешний ASPI-интерфейс
Выходной формат : Внутренние WAV-операции
Формат сэмплов : 44.100 Гц; 16 бит; стерео
TOC извлечённого CD
Трек | Старт | Длительность | Начальный сектор | Конечный сектор
---------------------------------------------------------------------
1 | 0:00.00 | 3:35.49 | 0 | 16173
2 | 3:35.49 | 3:37.05 | 16174 | 32453
3 | 7:12.54 | 3:48.02 | 32454 | 49555
4 | 11:00.56 | 3:28.69 | 49556 | 65224
5 | 14:29.50 | 5:21.01 | 65225 | 89300
6 | 19:50.51 | 3:23.10 | 89301 | 104535
7 | 23:13.61 | 4:51.26 | 104536 | 126386
8 | 28:05.12 | 3:39.60 | 126387 | 142871
9 | 31:44.72 | 3:29.74 | 142872 | 158620
10 | 35:14.71 | 3:06.01 | 158621 | 172571
11 | 38:20.72 | 3:35.70 | 172572 | 188766
12 | 41:56.67 | 3:45.70 | 188767 | 205711
13 | 45:42.62 | 2:58.05 | 205712 | 219066
14 | 48:40.67 | 3:18.34 | 219067 | 233950
Характеристики диапазона извлечения и сообщения об ошибках
Выбранный диапазон
Имя файла D:\Александр Ломинский - Ты знала.wav
Пиковый уровень 96.7 %
Качество диапазона 100.0 %
CRC теста 48EE3AA9
CRC копии 48EE3AA9
Копирование... OK
Ошибок не произошло
AccurateRip: сводка
Трек 1 нет в базе данных
Трек 2 нет в базе данных
Трек 3 нет в базе данных
Трек 4 нет в базе данных
Трек 5 нет в базе данных
Трек 6 нет в базе данных
Трек 7 нет в базе данных
Трек 8 нет в базе данных
Трек 9 нет в базе данных
Трек 10 нет в базе данных
Трек 11 нет в базе данных
Трек 12 нет в базе данных
Трек 13 нет в базе данных
Трек 14 нет в базе данных
Ни одного трека нет в базе AccurateRip
Конец отчёта

[Торрент-статистика]
[Профиль]  [ЛС] 
Показать сообщения:    
Ответить на тему

Текущее время: Сегодня 06:28

Часовой пояс: GMT + 4



Вы не можете начинать темы
Вы не можете отвечать на сообщения
Вы не можете редактировать свои сообщения
Вы не можете удалять свои сообщения
Вы не можете голосовать в опросах
Вы не можете прикреплять файлы к сообщениям
Вы не можете скачивать файлы