Bee Gees - One Night Only (HDCD)- 1998, (Pop/Pop-Rock/Soft Rock), FLAC (image+.cue), lossless

Ответить на тему
 
Автор
Сообщение

Admiral ®

Пол:

Стаж: 7 лет 2 месяца

Сообщений: 606

Репутация: 146 [+] [-]

Пост 13-Июл-2014 12:17

[Цитировать] 

Bee Gees - One Night Only Жанр: Pop/Pop-Rock/Soft Rock
Год выпуска диска: 2006
Производитель диска: Made in EU Reprise 8122-77605-2
Аудио кодек: FLAC
Тип рипа: image+.cue
Битрейт аудио: lossless
Продолжительность: 1:18:00.97

Трэклист:

CD: Bee Gees - One Night Only

01. Bee Gees / Intro, You Should Be Dancing, Alone [0:05:46.90]
02. Bee Gees / Massachusetts [0:02:31.46]
03. Bee Gees / To Love Somebody [0:03:09.92]
04. Bee Gees / Words [0:03:27.25]
05. Bee Gees / Closer Than Close [0:03:30.02]
06. Bee Gees / Islands In The Stream [0:03:46.45]
07. Bee Gees feat. Andy Gibb / Our Love (Don't Throw It All Away) [0:03:51.73]
08. Bee Gees / Night Fever, More Than A Woman [0:03:25.58]
09. Bee Gees / Lonely Days [0:03:43.72]
10. Bee Gees / New York Mining Disaster 1941 [0:02:14.73]
11. Bee Gees / I Can't See Nobody [0:01:30.49]
12. Bee Gees / And The Sun Will Shine [0:01:54.26]
13. Bee Gees / Nights On Broadway [0:01:05.16]
14. Bee Gees / How Can You Mend A Broken Heart [0:03:27.00]
15. Bee Gees / Heartbreaker [0:01:04.93]
16. Bee Gees / Guilty [0:02:21.40]
17. Bee Gees feat. Céline Dion / Immortality [0:04:45.77]
18. Bee Gees / Tragedy [0:04:27.52]
19. Bee Gees / I Started A Joke [0:02:48.38]
20. Bee Gees / Grease [0:02:42.76]
21. Bee Gees / Jive Talkin' [0:04:19.20]
22. Bee Gees / How Deep Is Your Love [0:03:54.06]
23. Bee Gees / Stayin' Alive [0:03:59.41]
24. Bee Gees / You Should Be Dancing [0:04:12.80]
Total: 1:18:00.97

disc&back

ЕАС

Exact Audio Copy V1.0 beta 1 from 15. November 2010
EAC extraction logfile from 4. March 2011, 2:57
Various / One Night Only
Used drive : PLEXTOR DVDR PX-716A Adapter: 0 ID: 0
Read mode : Secure
Utilize accurate stream : Yes
Defeat audio cache : Yes
Make use of C2 pointers : No
Read offset correction : 30
Overread into Lead-In and Lead-Out : Yes
Fill up missing offset samples with silence : Yes
Delete leading and trailing silent blocks : No
Null samples used in CRC calculations : Yes
Used interface : Native Win32 interface for Win NT & 2000
Used output format : User Defined Encoder
Selected bitrate : 1024 kBit/s
Quality : High
Add ID3 tag : No
Command line compressor : C:\Program Files (x86)\FLAC\flac.exe
Additional command line options : -8 -V -T "ARTIST=%a" -T "TITLE=%t" -T "ALBUM=%g" -T "DATE=%y" -T "TRACKNUMBER=%n" -T "GENRE=%m" -T "COMMENT=EAC FLAC -8" %s
TOC of the extracted CD
Track | Start | Length | Start sector | End sector
---------------------------------------------------------
1 | 0:00.00 | 5:46.68 | 0 | 26017
2 | 5:46.68 | 2:31.35 | 26018 | 37377
3 | 8:18.28 | 3:09.69 | 37378 | 51621
4 | 11:28.22 | 3:27.19 | 51622 | 67165
5 | 14:55.41 | 3:30.02 | 67166 | 82917
6 | 18:25.43 | 3:46.34 | 82918 | 99901
7 | 22:12.02 | 3:51.55 | 99902 | 117281
8 | 26:03.57 | 3:25.44 | 117282 | 132700
9 | 29:29.26 | 3:43.54 | 132701 | 149479
10 | 33:13.05 | 2:14.55 | 149480 | 159584
11 | 35:27.60 | 1:30.37 | 159585 | 166371
12 | 36:58.22 | 1:54.20 | 166372 | 174941
13 | 38:52.42 | 1:05.12 | 174942 | 179828
14 | 39:57.54 | 3:27.00 | 179829 | 195353
15 | 43:24.54 | 1:04.70 | 195354 | 200223
16 | 44:29.49 | 2:21.30 | 200224 | 210828
17 | 46:51.04 | 4:45.58 | 210829 | 232261
18 | 51:36.62 | 4:27.39 | 232262 | 252325
19 | 56:04.26 | 2:48.29 | 252326 | 264954
20 | 58:52.55 | 2:42.57 | 264955 | 277161
21 | 61:35.37 | 4:19.15 | 277162 | 296601
22 | 65:54.52 | 3:54.05 | 296602 | 314156
23 | 69:48.57 | 3:59.31 | 314157 | 332112
24 | 73:48.13 | 4:12.60 | 332113 | 351072
Range status and errors
Selected range
Filename E:\mtorrent_flac\Bee Gees - One Night Only (HDCD)\Bee Gees - One Night Only.wav
Peak level 100.0 %
Extraction speed 0.0 X
Range quality 100.0 %
Test CRC 539D6223
Copy CRC 539D6223
Copy OK
No errors occurred
AccurateRip summary
Track 1 accurately ripped (confidence 3) [409083CE]
Track 2 accurately ripped (confidence 3) [F5737505]
Track 3 accurately ripped (confidence 2) [B2EFECF8]
Track 4 accurately ripped (confidence 2) [FD097EED]
Track 5 accurately ripped (confidence 2) [288F008E]
Track 6 accurately ripped (confidence 2) [CA603AEE]
Track 7 accurately ripped (confidence 2) [A285EEDC]
Track 8 accurately ripped (confidence 2) [20B8DBD6]
Track 9 accurately ripped (confidence 2) [418F62F2]
Track 10 accurately ripped (confidence 2) [95929012]
Track 11 accurately ripped (confidence 2) [5C08CBCD]
Track 12 accurately ripped (confidence 2) [507A37E4]
Track 13 accurately ripped (confidence 2) [787081DA]
Track 14 accurately ripped (confidence 2) [5AD3C458]
Track 15 accurately ripped (confidence 2) [895EA257]
Track 16 accurately ripped (confidence 2) [7CBF35D4]
Track 17 accurately ripped (confidence 2) [E948EC63]
Track 18 accurately ripped (confidence 2) [07C4B5E7]
Track 19 accurately ripped (confidence 2) [390E37E5]
Track 20 accurately ripped (confidence 2) [5286C1C1]
Track 21 accurately ripped (confidence 2) [63C4B8EF]
Track 22 accurately ripped (confidence 2) [6139887C]
Track 23 accurately ripped (confidence 2) [96DE357B]
Track 24 accurately ripped (confidence 2) [871B2268]
All tracks accurately ripped
End of status report
[Торрент-статистика]
[Профиль]  [ЛС] 
Показать сообщения:    
Ответить на тему

Текущее время: Сегодня 01:02

Часовой пояс: GMT + 4



Вы не можете начинать темы
Вы не можете отвечать на сообщения
Вы не можете редактировать свои сообщения
Вы не можете удалять свои сообщения
Вы не можете голосовать в опросах
Вы не можете прикреплять файлы к сообщениям
Вы не можете скачивать файлы