Bee Gees - Size Isn't Everything - 2004 (Japan), (Pop/Pop-Rock/Soft Rock), FLAC (image+.cue), lossless

Ответить на тему
 
Автор
Сообщение

Admiral ®

Пол:

Стаж: 7 лет 2 месяца

Сообщений: 606

Репутация: 146 [+] [-]

Пост 13-Июл-2014 11:48

[Цитировать] 

--Bee Gees - Size Isn't Everything-- Жанр: Pop/Pop-Rock/Soft Rock
Год выпуска диска: 2004
Производитель диска: Made in Japan
Аудио кодек: FLAC
Тип рипа: image+.cue
Битрейт аудио: lossless
Продолжительность: 55:38.25

Трэклист:
CD: Bee Gees - Size Isn't Everything
Polydor 519945-2
(P) 1993 YEAR: 1993
01. Paying The Price Of Love [0:04:12.13]
02. Kiss Of Life [0:04:16.52]
03. How To Fall In Love, Pt. 1 [0:06:00.05]
04. Omega Man [0:04:00.63]
05. Haunted House [0:05:45.30]
06. Heart Like Mine [0:04:42.52]
07. Anything For You [0:04:40.43]
08. Blue Island [0:03:19.07]
09. Above And Beyond [0:04:31.03]
10. For Whom The Bell Tolls [0:05:06.37]
11. Fallen Angel [0:04:32.38]
12. Decadance [0:04:30.57]
Total: 55:38.25

disc&back&obi

Отчет ЕАС

Exact Audio Copy V0.99 prebeta 4 from 23. January 2008
Отчёт EAC об извлечении, выполненном 26. декабря 2008, 23:34
Bee Gees / Size Isn't Everything
Дисковод: PLEXTOR DVDR PX-716A Adapter: 0 ID: 0
Режим чтения : Достоверность
Использование точного потока : Да
Отключение кэша аудио : Да
Использование указателей C2 : Нет
Коррекция смещения при чтении : 30
Способность читать области Lead-in и Lead-out : Нет
Заполнение пропущенных сэмплов тишиной : Да
Удаление блоков с тишиной в начале и конце : Нет
При вычислениях CRC использовались нулевые сэмплы : Да
Интерфейс : Встроенный Win32-интерфейс для Win NT/2000
Выходной формат : Пользовательский кодировщик
Выбранный битрейт : 128 kBit/s
Качество : Высокий
Добавление ID3-тэга : Нет
Утилита сжатия : C:\Program Files\FLAC\flac.exe
Дополнительные параметры : -8 -V -T "ARTIST=%a" -T "TITLE=%t" -T "ALBUM=%g" -T "DATE=%y" -T "TRACKNUMBER=%n" -T "GENRE=%m" -T "COMMENT=EAC FLAC -8" %s
TOC извлечённого CD
Трек | Старт | Длительность | Начальный сектор | Конечный сектор
---------------------------------------------------------------------
1 | 0:00.00 | 4:12.13 | 0 | 18912
2 | 4:12.13 | 4:16.52 | 18913 | 38164
3 | 8:28.65 | 6:00.05 | 38165 | 65169
4 | 14:28.70 | 4:00.63 | 65170 | 83232
5 | 18:29.58 | 5:45.30 | 83233 | 109137
6 | 24:15.13 | 4:42.52 | 109138 | 130339
7 | 28:57.65 | 4:40.43 | 130340 | 151382
8 | 33:38.33 | 3:19.07 | 151383 | 166314
9 | 36:57.40 | 4:31.03 | 166315 | 186642
10 | 41:28.43 | 5:06.37 | 186643 | 209629
11 | 46:35.05 | 4:32.38 | 209630 | 230067
12 | 51:07.43 | 4:30.57 | 230068 | 250374
Характеристики диапазона извлечения и сообщения об ошибках
Выбранный диапазон
Имя файла E:\EAC rip\Bee Gees - Size Isn't Everything.wav
Пиковый уровень 97.7 %
Качество диапазона 100.0 %
CRC теста 54B4654C
CRC копии 54B4654C
Копирование... OK
Ошибок не произошло
AccurateRip: сводка
Трек 1 нет в базе данных
Трек 2 нет в базе данных
Трек 3 нет в базе данных
Трек 4 нет в базе данных
Трек 5 нет в базе данных
Трек 6 нет в базе данных
Трек 7 нет в базе данных
Трек 8 нет в базе данных
Трек 9 нет в базе данных
Трек 10 нет в базе данных
Трек 11 нет в базе данных
Трек 12 нет в базе данных
Ни одного трека нет в базе AccurateRip
Конец отчёта
[Торрент-статистика]
[Профиль]  [ЛС] 
Показать сообщения:    
Ответить на тему

Текущее время: Сегодня 04:01

Часовой пояс: GMT + 4



Вы не можете начинать темы
Вы не можете отвечать на сообщения
Вы не можете редактировать свои сообщения
Вы не можете удалять свои сообщения
Вы не можете голосовать в опросах
Вы не можете прикреплять файлы к сообщениям
Вы не можете скачивать файлы