Bee Gees - Main Course - 1975, (PopMusic), FLAC (image+.cue), lossless

Ответить на тему
 
Автор
Сообщение

Admiral ®

Пол:

Стаж: 7 лет 2 месяца

Сообщений: 606

Репутация: 146 [+] [-]

Пост 13-Июл-2014 11:21

[Цитировать] 

--Bee Gees - Main Course-- Жанр: PopMusic
Год выпуска диска: 1995
Производитель диска: Made in Germany Polydor 833 790-2
Аудио кодек: FLAC
Тип рипа: image+.cue
Битрейт аудио: lossless
Продолжительность: 00:40:54

Трэклист:
CD: Bee Gees - Main Course
01. Nights On Broadway [0:04:34.13]
02. Jive Talkin' [0:03:45.24]
03. Wind Of Change [0:04:54.86]
04. Songbird [0:03:38.46]
05. Fanny (Be Tender With My Love) [0:04:07.02]
06. All This Making Love [0:03:06.86]
07. Country Lanes [0:03:30.20]
08. Come On Over [0:03:28.90]
09. Edge Of The Universe [0:05:24.66]
10. Baby As You Turn Away [0:04:23.80]
Total: 40:54.17

artwork

Отчёт EAC

Exact Audio Copy V1.0 beta 3 from 29. August 2011
EAC extraction logfile from 28. March 2013, 1:32
Bee Gees / Main Course
Used drive : PLEXTOR DVDR PX-716A Adapter: 0 ID: 0
Read mode : Secure
Utilize accurate stream : Yes
Defeat audio cache : Yes
Make use of C2 pointers : No
Read offset correction : 30
Overread into Lead-In and Lead-Out : Yes
Fill up missing offset samples with silence : Yes
Delete leading and trailing silent blocks : No
Null samples used in CRC calculations : Yes
Used interface : Native Win32 interface for Win NT & 2000
Used output format : User Defined Encoder
Selected bitrate : 896 kBit/s
Quality : High
Add ID3 tag : No
Command line compressor : C:\Program Files (x86)\FLAC\flac.exe
Additional command line options : -V -8 -T "Date=%year%" -T "Genre=%genre%" %source%
TOC of the extracted CD
Track | Start | Length | Start sector | End sector
---------------------------------------------------------
1 | 0:00.32 | 4:34.10 | 32 | 20591
2 | 4:34.42 | 3:45.18 | 20592 | 37484
3 | 8:19.60 | 4:54.65 | 37485 | 59599
4 | 13:14.50 | 3:38.35 | 59600 | 75984
5 | 16:53.10 | 4:07.02 | 75985 | 94511
6 | 21:00.12 | 3:06.65 | 94512 | 108526
7 | 24:07.02 | 3:30.15 | 108527 | 124291
8 | 27:37.17 | 3:28.68 | 124292 | 139959
9 | 31:06.10 | 5:24.50 | 139960 | 164309
10 | 36:30.60 | 4:23.60 | 164310 | 184094
Range status and errors
Selected range
Filename E:\mtorrent_flac\Bee Gees - Main Course (Polydor 833 790-2)\Bee Gees - Main Course.wav
Peak level 100.0 %
Extraction speed 1.1 X
Range quality 100.0 %
Test CRC 4BC9BA49
Copy CRC 4BC9BA49
Copy OK
No errors occurred
AccurateRip summary
Track 1 accurately ripped (confidence 14) [9323D082] (AR v1)
Track 2 accurately ripped (confidence 14) [5232458C] (AR v1)
Track 3 accurately ripped (confidence 14) [7324484E] (AR v1)
Track 4 accurately ripped (confidence 14) [C61DCA26] (AR v1)
Track 5 accurately ripped (confidence 14) [D7CFC7A7] (AR v1)
Track 6 accurately ripped (confidence 14) [7117E6D1] (AR v1)
Track 7 accurately ripped (confidence 14) [9340ED22] (AR v1)
Track 8 accurately ripped (confidence 14) [6B5370D4] (AR v1)
Track 9 accurately ripped (confidence 14) [1516D1F0] (AR v1)
Track 10 accurately ripped (confidence 14) [F0276A64] (AR v1)
All tracks accurately ripped
End of status report
---- CUETools DB Plugin V2.1.3
[CTDB TOCID: fo6ZjB6uWUyunKbed31hnjeWncE-] found, Submit result: discs with pregaps not supported in this protocol version
[7c5edf41] (18/18) Differs in 0 samples @
You can use CUETools to repair this rip.
==== Log checksum A260B599A3BD492738096EC34E8AD08EF9C0A2057F2522CF351841ED02FE3756 ====
[Торрент-статистика]
[Профиль]  [ЛС] 
Показать сообщения:    
Ответить на тему

Текущее время: Сегодня 17:15

Часовой пояс: GMT + 4



Вы не можете начинать темы
Вы не можете отвечать на сообщения
Вы не можете редактировать свои сообщения
Вы не можете удалять свои сообщения
Вы не можете голосовать в опросах
Вы не можете прикреплять файлы к сообщениям
Вы не можете скачивать файлы