Bee Gees - The Bee Gees' History - 1985 (Japan), (PopMusic), FLAC (image+.cue), lossless

Ответить на тему
 
Автор
Сообщение

Admiral ®

Пол:

Стаж: 7 лет 2 месяца

Сообщений: 606

Репутация: 146 [+] [-]

Пост 13-Июл-2014 11:08

[Цитировать] 

--Bee Gees - The Bee Gees' History (Japan)-- Жанр: Popmusic
Год издания диска: 1985
Издатель (лейбл): Polydor K.K. Made in Japan
Номер по каталогу: P33W 20001
Аудио кодек: FLAC (*.flac)
Тип рипа: image+.cue
Битрейт аудио: lossless
Продолжительность: 01:10:27
Наличие сканов в содержимом раздачи: да
Треклист:


01. New York Mining Disaster 1941 [0:02:12.62]
02. To Love Somebody [0:03:01.77]
03. Massachusetts [0:02:25.60]
04. Holiday [0:02:57.16]
05. Words [0:03:17.64]
06. I've Gotta Get A Message To You [0:03:04.09]
07. In The Morning [0:03:57.06]
08. Melody Fair [0:03:50.06]
09. Don't Forget To Remember [0:03:32.64]
10. Lonely Days [0:03:47.96]
11. How Can You Mend A Broken Heart [0:04:00.57]
12. Jive Talkin' [0:03:37.96]
13. You Should Be Dancing [0:04:18.86]
14. How Deep Is Your Love [0:03:41.26]
15. Stayin' Alive [0:04:48.60]
16. Night Fever [0:03:33.80]
17. Too Much Heaven [0:04:57.70]
18. Tragedy [0:05:05.56]
19. Living Eyes [0:04:17.00]
Total: 1:10:27.96

artwork

Отчёт EAC

Exact Audio Copy V1.0 beta 3 from 29. August 2011
EAC extraction logfile from 25. January 2013, 0:53
Bee Gees / The Bee Gees' History
Used drive : PLEXTOR DVDR PX-716A Adapter: 0 ID: 0
Read mode : Secure
Utilize accurate stream : Yes
Defeat audio cache : Yes
Make use of C2 pointers : No
Read offset correction : 30
Overread into Lead-In and Lead-Out : Yes
Fill up missing offset samples with silence : Yes
Delete leading and trailing silent blocks : No
Null samples used in CRC calculations : Yes
Used interface : Native Win32 interface for Win NT & 2000
Used output format : User Defined Encoder
Selected bitrate : 896 kBit/s
Quality : High
Add ID3 tag : No
Command line compressor : C:\Program Files (x86)\FLAC\flac.exe
Additional command line options : -V -8 -T "Date=%year%" -T "Genre=%genre%" %source%
TOC of the extracted CD
Track | Start | Length | Start sector | End sector
---------------------------------------------------------
1 | 0:00.00 | 2:12.47 | 0 | 9946
2 | 2:12.47 | 3:01.58 | 9947 | 23579
3 | 5:14.30 | 2:25.45 | 23580 | 34499
4 | 7:40.00 | 2:57.12 | 34500 | 47786
5 | 10:37.12 | 3:17.48 | 47787 | 62609
6 | 13:54.60 | 3:04.07 | 62610 | 76416
7 | 16:58.67 | 3:57.05 | 76417 | 94196
8 | 20:55.72 | 3:50.05 | 94197 | 111451
9 | 24:46.02 | 3:32.48 | 111452 | 127399
10 | 28:18.50 | 3:47.72 | 127400 | 144496
11 | 32:06.47 | 4:00.43 | 144497 | 162539
12 | 36:07.15 | 3:37.72 | 162540 | 178886
13 | 39:45.12 | 4:18.65 | 178887 | 198301
14 | 44:04.02 | 3:41.20 | 198302 | 214896
15 | 47:45.22 | 4:48.45 | 214897 | 236541
16 | 52:33.67 | 3:33.60 | 236542 | 252576
17 | 56:07.52 | 4:57.53 | 252577 | 274904
18 | 61:05.30 | 5:05.42 | 274905 | 297821
19 | 66:10.72 | 4:17.00 | 297822 | 317096
Range status and errors
Selected range
Filename E:\mtorrent_flac\Bee Gees - History (Polydor K.K. Japan P33W-20001)\Bee Gees - The Bee Gees' History.wav
Peak level 90.6 %
Extraction speed 1.8 X
Range quality 100.0 %
Test CRC C6192981
Copy CRC C6192981
Copy OK
No errors occurred
AccurateRip summary
Track 1 cannot be verified as accurate (confidence 2) [503CE0B2], AccurateRip returned [0C5DCCF1] (AR v2)
Track 2 cannot be verified as accurate (confidence 2) [4CC32AD1], AccurateRip returned [2013FECC] (AR v2)
Track 3 cannot be verified as accurate (confidence 2) [973B2879], AccurateRip returned [F139F944] (AR v2)
Track 4 cannot be verified as accurate (confidence 2) [7D4203E8], AccurateRip returned [9B7894CA] (AR v2)
Track 5 cannot be verified as accurate (confidence 2) [7AE7EC91], AccurateRip returned [81D8DFAE] (AR v2)
Track 6 cannot be verified as accurate (confidence 2) [315F58A5], AccurateRip returned [E1D2177A] (AR v2)
Track 7 cannot be verified as accurate (confidence 2) [C86DF08B], AccurateRip returned [46B8CFDD] (AR v2)
Track 8 cannot be verified as accurate (confidence 2) [1A5FD5FE], AccurateRip returned [3FBA7A92] (AR v2)
Track 9 cannot be verified as accurate (confidence 2) [FFCE2252], AccurateRip returned [8DBF4900] (AR v2)
Track 10 cannot be verified as accurate (confidence 2) [687F9772], AccurateRip returned [68A8ED20] (AR v2)
Track 11 cannot be verified as accurate (confidence 2) [100C8290], AccurateRip returned [5DE46940] (AR v2)
Track 12 not present in database
Track 13 cannot be verified as accurate (confidence 2) [6BE2D7D1], AccurateRip returned [0B09636D] (AR v2)
Track 14 cannot be verified as accurate (confidence 2) [06463448], AccurateRip returned [DD49F124] (AR v2)
Track 15 cannot be verified as accurate (confidence 2) [B8383AA6], AccurateRip returned [71DDC589] (AR v2)
Track 16 cannot be verified as accurate (confidence 2) [4572D3A5], AccurateRip returned [D0FC13E1] (AR v2)
Track 17 cannot be verified as accurate (confidence 2) [54969A8F], AccurateRip returned [54354423] (AR v2)
Track 18 cannot be verified as accurate (confidence 2) [537E58B2], AccurateRip returned [4F14E61E] (AR v2)
Track 19 cannot be verified as accurate (confidence 2) [4B234AF1], AccurateRip returned [B8F1475C] (AR v2)
18 track(s) could not be verified as accurate
1 track(s) not present in the AccurateRip database
No tracks could be verified as accurate
You may have a different pressing from the one(s) in the database
End of status report
---- CUETools DB Plugin V2.1.3
[CTDB TOCID: 1UUSlA5meTimvGsz1YWHaQBkFYE-] found, Submit result: 1UUSlA5meTimvGsz1YWHaQBkFYE- has been confirmed
[1cc08ddd] (4/4) Accurately ripped
==== Log checksum 8FF2BFDA126E8B5E30F0160071B5A9315C7AC40F17E63D103F4225B9F8E8155A ====

[Торрент-статистика]
[Профиль]  [ЛС] 
Показать сообщения:    
Ответить на тему

Текущее время: Сегодня 07:48

Часовой пояс: GMT + 4



Вы не можете начинать темы
Вы не можете отвечать на сообщения
Вы не можете редактировать свои сообщения
Вы не можете удалять свои сообщения
Вы не можете голосовать в опросах
Вы не можете прикреплять файлы к сообщениям
Вы не можете скачивать файлы