Arabesque - The Best Of Vol. I-III (6CD) - 2004-2005, (Disco), FLAC (image+.cue), lossless

Ответить на тему
 
Автор
Сообщение

Admiral ®

Пол:

Стаж: 7 лет 2 месяца

Сообщений: 606

Репутация: 146 [+] [-]

Пост 10-Июл-2014 19:53

[Цитировать] 

--Arabesque - The Best Of Vol. I-III (6CD)-- Жанр: Disco
Страна-производитель диска: Germany
Год издания диска: 2004
Издатель (лейбл): Monopol Records
Номер по каталогу: M 5280/ M5287/ M5309
Страна: Germany
Аудиокодек: FLAC (*.flac)
Тип рипа: image+.cue
Битрейт аудио: lossless
Продолжительность: 06:06:07
Наличие сканов в содержимом раздачи: да

Arabesque - The Best Of Vol. I

Треклист:
1.01 Hello, Mr. Monkey 3:28
1.02 Buggy Boy 2:56
1.03 Friday Night 4:15
1.04 In For A Penny, In For A Pound 2:58
1.05 Fly High, Little Butterfly 3:26
1.06 Caballero 3:59
1.07 Hit The Jackpot 3:15
1.08 Why No Reply? 3:31
1.09 Zanzibar 3:41
1.10 Billy's Barbeque 2:47
1.11 In The Heat Of A Disco-Night 3:15
1.12 Rock Me After Midnight 3:48
1.13 City Cats 3:03
1.14 Peppermint Jack 3:05
2.01 Dancing In The Fire Of Love 3:28
2.02 Hell Driver 4:55
2.03 Don't Kiss A Crocodile 3:28
2.04 Lucifers Lover 3:31
2.05 Plastic Heart 3:59
2.06 It's So Hard To Leave You 4:01
2.07 Roller Star 3:38
2.08 High Life 3:05
2.09 Once In A Blue Moon 3:17
2.10 Jingle Jangle Joe 3:09
2.11 Marigot Bay 3:49
2.12 Hey, Catch On 3:19
2.13 Take Me Don't Break Me 3:16
2.14 Parties In A Penthouse 3:17

EAC

CD1
Exact Audio Copy V0.99 prebeta 5 from 4. May 2009
Отчёт EAC об извлечении, выполненном 17. июля 2011, 0:35
Arabesque / The Best Of Vol. 1
Дисковод: PLEXTOR CD-R PREMIUM2 Adapter: 0 ID: 0
Режим чтения : Достоверность
Использование точного потока : Да
Отключение кэша аудио : Да
Использование указателей C2 : Нет
Коррекция смещения при чтении : 30
Способность читать области Lead-in и Lead-out : Нет
Заполнение пропущенных сэмплов тишиной : Да
Удаление блоков с тишиной в начале и конце : Нет
При вычислениях CRC использовались нулевые сэмплы : Да
Интерфейс : Встроенный Win32-интерфейс для Win NT/2000
Выходной формат : Внутренние WAV-операции
Формат сэмплов : 44.100 Гц; 16 бит; стерео
TOC извлечённого CD
Трек | Старт | Длительность | Начальный сектор | Конечный сектор
---------------------------------------------------------------------
1 | 0:00.00 | 3:29.02 | 0 | 15676
2 | 3:29.02 | 2:56.64 | 15677 | 28940
3 | 6:25.66 | 4:15.31 | 28941 | 48096
4 | 10:41.22 | 3:00.14 | 48097 | 61610
5 | 13:41.36 | 3:25.26 | 61611 | 77011
6 | 17:06.62 | 4:00.72 | 77012 | 95083
7 | 21:07.59 | 3:16.51 | 95084 | 109834
8 | 24:24.35 | 3:31.42 | 109835 | 125701
9 | 27:56.02 | 3:40.02 | 125702 | 142203
10 | 31:36.04 | 2:48.12 | 142204 | 154815
11 | 34:24.16 | 3:14.03 | 154816 | 169368
12 | 37:38.19 | 3:48.13 | 169369 | 186481
13 | 41:26.32 | 3:02.32 | 186482 | 200163
14 | 44:28.64 | 3:04.51 | 200164 | 214014
Характеристики диапазона извлечения и сообщения об ошибках
Выбранный диапазон
Имя файла C:\Arabesque Best Of Vol.1\CD-1\Arabesque - The Best Of Vol. 1.wav
Пиковый уровень 98.8 %
Качество диапазона 100.0 %
CRC теста 1EDC6EC6
CRC копии 1EDC6EC6
Копирование... OK
Ошибок не произошло
AccurateRip: сводка
Трек 1 точное извлечение (доверие 8) [11CAF423]
Трек 2 точное извлечение (доверие 8) [A0326EF4]
Трек 3 точное извлечение (доверие 8) [93C1CD69]
Трек 4 точное извлечение (доверие 8) [74FD3EDB]
Трек 5 точное извлечение (доверие 8) [BB3B2D06]
Трек 6 точное извлечение (доверие 8) [438089DA]
Трек 7 точное извлечение (доверие 8) [3729FFD2]
Трек 8 точное извлечение (доверие 8) [4CC8FD77]
Трек 9 точное извлечение (доверие 8) [A75547AB]
Трек 10 точное извлечение (доверие 8) [81056F4E]
Трек 11 точное извлечение (доверие 8) [9FC7145A]
Трек 12 точное извлечение (доверие 8) [38BF22C2]
Трек 13 точное извлечение (доверие 8) [C19DF4D2]
Трек 14 точное извлечение (доверие 8) [F7E44D1A]
Все треки извлечены точно
Конец отчёта
CD2
Exact Audio Copy V0.99 prebeta 5 from 4. May 2009
Отчёт EAC об извлечении, выполненном 17. июля 2011, 1:00
Arabesque / The Best Of Vol. 1 CD 2
Дисковод: PLEXTOR CD-R PREMIUM2 Adapter: 0 ID: 0
Режим чтения : Достоверность
Использование точного потока : Да
Отключение кэша аудио : Да
Использование указателей C2 : Нет
Коррекция смещения при чтении : 30
Способность читать области Lead-in и Lead-out : Нет
Заполнение пропущенных сэмплов тишиной : Да
Удаление блоков с тишиной в начале и конце : Нет
При вычислениях CRC использовались нулевые сэмплы : Да
Интерфейс : Встроенный Win32-интерфейс для Win NT/2000
Выходной формат : Внутренние WAV-операции
Формат сэмплов : 44.100 Гц; 16 бит; стерео
TOC извлечённого CD
Трек | Старт | Длительность | Начальный сектор | Конечный сектор
---------------------------------------------------------------------
1 | 0:00.00 | 3:29.52 | 0 | 15726
2 | 3:29.52 | 4:57.31 | 15727 | 38032
3 | 8:27.08 | 3:31.40 | 38033 | 53897
4 | 11:58.48 | 3:32.29 | 53898 | 69826
5 | 15:31.02 | 3:59.42 | 69827 | 87793
6 | 19:30.44 | 4:02.25 | 87794 | 105968
7 | 23:32.69 | 3:41.42 | 105969 | 122585
8 | 27:14.36 | 3:06.68 | 122586 | 136603
9 | 30:21.29 | 3:19.30 | 136604 | 151558
10 | 33:40.59 | 3:10.17 | 151559 | 165825
11 | 36:51.01 | 3:51.01 | 165826 | 183151
12 | 40:42.02 | 3:21.42 | 183152 | 198268
13 | 44:03.44 | 3:17.36 | 198269 | 213079
14 | 47:21.05 | 3:16.71 | 213080 | 227850
Характеристики диапазона извлечения и сообщения об ошибках
Выбранный диапазон
Имя файла C:\Arabesque Best Of Vol.1\CD-2\Arabesque - The Best Of Vol. 1 CD 2.wav
Пиковый уровень 100.0 %
Качество диапазона 100.0 %
CRC теста F931539E
CRC копии F931539E
Копирование... OK
Ошибок не произошло
AccurateRip: сводка
Трек 1 точное извлечение (доверие 7) [4FC26E2F]
Трек 2 точное извлечение (доверие 8) [1C28DAF3]
Трек 3 точное извлечение (доверие 8) [B9627916]
Трек 4 точное извлечение (доверие 8) [376F0BD5]
Трек 5 точное извлечение (доверие 8) [2BA9054F]
Трек 6 точное извлечение (доверие 8) [05883EFD]
Трек 7 точное извлечение (доверие 8) [192A8368]
Трек 8 точное извлечение (доверие 8) [4CE41B34]
Трек 9 точное извлечение (доверие 8) [DE88034C]
Трек 10 точное извлечение (доверие 8) [53018A60]
Трек 11 точное извлечение (доверие 8) [4C19E336]
Трек 12 точное извлечение (доверие 8) [277D0D1E]
Трек 13 точное извлечение (доверие 8) [6197175D]
Трек 14 точное извлечение (доверие 8) [3C4A1278]
Все треки извлечены точно
Конец отчёта

Arabesque - The Best Of Vol. II

Треклист:
1.01 Dance, Dance, Dance 3:08
1.02 A New Sensation 3:08
1.03 Make Love Whenever You Can 3:44
1.04 Look Alive 3:41
1.05 Sunset In New York 3:55
1.06 Hi, Hi Highway 4:03
1.07 The Rebels Of The Bounty 3:58
1.08 Tropical Summer Night 3:42
1.09 Run The Show 3:14
1.10 I Stand By You 3:45
1.11 Ladies First 3:25
1.12 The Only Night Was A Lonely Night 3:20
1.13 Indio Boy 3:58
1.14 Catch Me Tiger 4:52
1.15 You Better Get A Move On 3:12
1.16 Bye, Bye My Love 3:27
1.17 Sunrise In Your Eyes 3:16
1.18 For Your Smile 2:53
1.19 Love`s Like Symphony 3:11
1.20 Time To Say Good-Bye 3:36
2.01 Midnight Dancer 3:40
2.02 Young Fingers Get Burnt 3:07
2.03 Discover Me 3:51
2.04 Keep The Wolf From The Door 4:18
2.05 Moorea 3:34
2.06 Nights In The Harbour 4:30
2.07 The Hero Of My Life 3:46
2.08 Dreamin` 3:32
2.09 Hey What A Magic Night 3:12
2.10 Like A Shot In The Dark 3:43
2.11 Prison Of Love 3:38
2.12 Rainy Love Affair 2:53
2.13 The Doctor Likes Music 2:55
2.14 Let`s Make A Night Of It 3:30
2.15 Heart On Fire 3:35
2.16 Loser Pays The Piper 3:21
2.17 Stop Crying For The Moon 3:20
2.18 Indio Boy (Version For Japan) - Bonus Track 3:53
2.19 Hi, Hi Highway (Version For Japan) - Bonus Track 4:05
2.20 Time To Say Good-Bye (Extended Version) - Bonus Track 4:45

EAC

CD1
xact Audio Copy V0.99 prebeta 5 from 4. May 2009
Отчёт EAC об извлечении, выполненном 20. августа 2011, 1:02
Arabesque / The Best Of Vol. II CD 1
Дисковод: PLEXTOR CD-R PREMIUM2 Adapter: 0 ID: 0
Режим чтения : Достоверность
Использование точного потока : Да
Отключение кэша аудио : Да
Использование указателей C2 : Нет
Коррекция смещения при чтении : 30
Способность читать области Lead-in и Lead-out : Нет
Заполнение пропущенных сэмплов тишиной : Да
Удаление блоков с тишиной в начале и конце : Нет
При вычислениях CRC использовались нулевые сэмплы : Да
Интерфейс : Встроенный Win32-интерфейс для Win NT/2000
Выходной формат : Внутренние WAV-операции
Формат сэмплов : 44.100 Гц; 16 бит; стерео
TOC извлечённого CD
Трек | Старт | Длительность | Начальный сектор | Конечный сектор
---------------------------------------------------------------------
1 | 0:00.00 | 3:10.35 | 0 | 14284
2 | 3:10.35 | 3:38.50 | 14285 | 30684
3 | 6:49.10 | 3:43.32 | 30685 | 47441
4 | 10:32.42 | 3:42.13 | 47442 | 64104
5 | 14:14.55 | 3:54.18 | 64105 | 81672
6 | 18:08.73 | 4:05.51 | 81673 | 100098
7 | 22:14.49 | 3:58.01 | 100099 | 117949
8 | 26:12.50 | 3:43.02 | 117950 | 134676
9 | 29:55.52 | 3:15.17 | 134677 | 149318
10 | 33:10.69 | 3:45.21 | 149319 | 166214
11 | 36:56.15 | 3:24.38 | 166215 | 181552
12 | 40:20.53 | 3:20.28 | 181553 | 196580
13 | 43:41.06 | 3:59.35 | 196581 | 214540
14 | 47:40.41 | 4:52.53 | 214541 | 236493
15 | 52:33.19 | 2:53.12 | 236494 | 249480
16 | 55:26.31 | 3:29.58 | 249481 | 265213
17 | 58:56.14 | 3:17.62 | 265214 | 280050
18 | 62:14.01 | 2:55.08 | 280051 | 293183
19 | 65:09.09 | 3:12.59 | 293184 | 307642
20 | 68:21.68 | 3:36.66 | 307643 | 323908
Характеристики диапазона извлечения и сообщения об ошибках
Выбранный диапазон
Имя файла C:\Arabesque Best Of Vol.2\CD-1\Arabesque - The Best Of Vol. II CD 1.wav
Пиковый уровень 98.8 %
Качество диапазона 100.0 %
CRC теста 501760B7
CRC копии 501760B7
Копирование... OK
Ошибок не произошло
AccurateRip: сводка
Трек 1 точное извлечение (доверие 4) [AB78A3B2]
Трек 2 точное извлечение (доверие 5) [1CF99F4E]
Трек 3 точное извлечение (доверие 5) [1DF66753]
Трек 4 точное извлечение (доверие 5) [264A1C6E]
Трек 5 точное извлечение (доверие 5) [4F6CED98]
Трек 6 точное извлечение (доверие 5) [D02B4B76]
Трек 7 точное извлечение (доверие 5) [6D324FAC]
Трек 8 точное извлечение (доверие 5) [F4FE3C9F]
Трек 9 точное извлечение (доверие 5) [C253072B]
Трек 10 точное извлечение (доверие 5) [A8347B32]
Трек 11 точное извлечение (доверие 5) [E23CFE18]
Трек 12 точное извлечение (доверие 5) [F5CCEA2F]
Трек 13 точное извлечение (доверие 5) [F65C4725]
Трек 14 точное извлечение (доверие 5) [37F40A13]
Трек 15 точное извлечение (доверие 5) [6BD71A5D]
Трек 16 точное извлечение (доверие 5) [B3AAD8C8]
Трек 17 точное извлечение (доверие 5) [A6CCC210]
Трек 18 точное извлечение (доверие 5) [2E03504F]
Трек 19 точное извлечение (доверие 5) [011DE5E6]
Трек 20 точное извлечение (доверие 5) [829948AA]
Все треки извлечены точно
Конец отчёта
CD2
Exact Audio Copy V0.99 prebeta 5 from 4. May 2009
Отчёт EAC об извлечении, выполненном 20. сентября 2011, 22:26
Arabesque / The Best Of (Vol. II) (CD2)
Дисковод: PLEXTOR CD-R PREMIUM2 Adapter: 0 ID: 0
Режим чтения : Достоверность
Использование точного потока : Да
Отключение кэша аудио : Да
Использование указателей C2 : Нет
Коррекция смещения при чтении : 30
Способность читать области Lead-in и Lead-out : Нет
Заполнение пропущенных сэмплов тишиной : Да
Удаление блоков с тишиной в начале и конце : Нет
При вычислениях CRC использовались нулевые сэмплы : Да
Интерфейс : Встроенный Win32-интерфейс для Win NT/2000
Выходной формат : Внутренние WAV-операции
Формат сэмплов : 44.100 Гц; 16 бит; стерео
TOC извлечённого CD
Трек | Старт | Длительность | Начальный сектор | Конечный сектор
---------------------------------------------------------------------
1 | 0:00.00 | 3:41.52 | 0 | 16626
2 | 3:41.52 | 3:07.72 | 16627 | 30723
3 | 6:49.49 | 3:51.02 | 30724 | 48050
4 | 10:40.51 | 4:20.25 | 48051 | 67575
5 | 15:01.01 | 4:47.37 | 67576 | 89137
6 | 19:48.38 | 4:28.50 | 89138 | 109287
7 | 24:17.13 | 3:50.02 | 109288 | 126539
8 | 28:07.15 | 3:33.67 | 126540 | 142581
9 | 31:41.07 | 3:14.09 | 142582 | 157140
10 | 34:55.16 | 3:43.11 | 157141 | 173876
11 | 38:38.27 | 2:54.38 | 173877 | 186964
12 | 41:32.65 | 3:08.11 | 186965 | 201075
13 | 44:41.01 | 2:55.16 | 201076 | 214216
14 | 47:36.17 | 3:29.60 | 214217 | 229951
15 | 51:06.02 | 3:35.00 | 229952 | 246076
16 | 54:41.02 | 3:20.42 | 246077 | 261118
17 | 58:01.44 | 3:21.11 | 261119 | 276204
18 | 61:22.55 | 3:56.24 | 276205 | 293928
19 | 65:19.04 | 4:07.07 | 293929 | 312460
20 | 69:26.11 | 4:44.11 | 312461 | 333771
Характеристики диапазона извлечения и сообщения об ошибках
Выбранный диапазон
Имя файла G:\Новая папка\Arabesque - The Best Of (Vol. II) (CD2).wav
Пиковый уровень 98.8 %
Качество диапазона 99.9 %
CRC теста E150B6C7
CRC копии E150B6C7
Копирование... OK
Ошибок не произошло
AccurateRip: сводка
Трек 1 точное извлечение (доверие 5) [A74413D6]
Трек 2 точное извлечение (доверие 5) [68BE7F58]
Трек 3 точное извлечение (доверие 5) [C5C29BEB]
Трек 4 точное извлечение (доверие 5) [5182685D]
Трек 5 точное извлечение (доверие 5) [87FAA513]
Трек 6 точное извлечение (доверие 5) [CD26B8AE]
Трек 7 точное извлечение (доверие 5) [42E676C9]
Трек 8 точное извлечение (доверие 5) [A65416BE]
Трек 9 точное извлечение (доверие 5) [96E16BC4]
Трек 10 точное извлечение (доверие 5) [CA52D5A6]
Трек 11 точное извлечение (доверие 5) [A761B188]
Трек 12 точное извлечение (доверие 5) [60F91090]
Трек 13 точное извлечение (доверие 5) [15AF13F9]
Трек 14 точное извлечение (доверие 5) [6D725C08]
Трек 15 точное извлечение (доверие 5) [6AEF43E8]
Трек 16 точное извлечение (доверие 5) [015D08AF]
Трек 17 точное извлечение (доверие 5) [34CE9135]
Трек 18 точное извлечение (доверие 5) [2E6D30FD]
Трек 19 точное извлечение (доверие 5) [D9CB707B]
Трек 20 точное извлечение (доверие 5) [F344E0F9]
Все треки извлечены точно
Конец отчёта

Arabesque - The Best Of Vol. III

Треклист:
1.01 Tall Story Teller 3:08
1.02 Six Times A Day 3:09
1.03 Ecstasy 3:32
1.04 The Man With The Gun 2:57
1.05 Rock`n`Roll Fan 3:19
1.06 Love Is Just A Game 4:24
1.07 I Don`t Wanna Have Breakfast With You 3:47
1.08 Don`t Fall Away From Me 3:35
1.09 Squaw 3:35
1.10 Fools Paradise 3:23
1.11 Give It Up 3:54
1.12 A Falsh In The Pan 3:57
1.13 Pack It Up 3:40
1.14 Black Out 3:24
1.15 You Win, Hands Down 2:54
1.16 Surfing bahama 3:09
1.17 Tough And Go 3:33
2:01 The Smile Of The Clown 3:58
2.02 Stupid Boys 3:05
2.03 Bye Bye Superman 3:22
2.04 Angel Face 3:14
2.05 Why Do You Ride The High Horse 4:02
2.06 Bort To Reggae 3:28
2.07 Don`t Wait For A Sailor 4:01
2.08 Someone Is Waiting For You 4:03
2.09 The End Of The Show 4:15
Bonustracks Taken From The Original Vinyls
2.10 Hit Medley Part One (Tall Story Teller - Once In A Blue Moon - Caballero - Let`s Make A Night Of It - Marigot Bay - Billy`s Barbeque - Midnight Dancer) 6:39
2.11 Hit Medley Part Two (In For Penny - Parties In A Penthouse - High Life - I Don`t Wanna Have Breakfast - Hey Catch On - Make Love Whenever You Can) 7:00
2.12 Squaw (Extended Version) 4:07
2.13 Ecstasy (Long Version) 5:12
2.14 Time To Say Goodbye (Long Version)

EAC

CD1
Exact Audio Copy V0.99 prebeta 5 from 4. May 2009
Отчёт EAC об извлечении, выполненном 23. августа 2011, 21:07
Arabesque / Arabesque - The Best Of Vol. 3 CD 1
Дисковод: PLEXTOR CD-R PREMIUM2 Adapter: 0 ID: 0
Режим чтения : Достоверность
Использование точного потока : Да
Отключение кэша аудио : Да
Использование указателей C2 : Нет
Коррекция смещения при чтении : 30
Способность читать области Lead-in и Lead-out : Нет
Заполнение пропущенных сэмплов тишиной : Да
Удаление блоков с тишиной в начале и конце : Нет
При вычислениях CRC использовались нулевые сэмплы : Да
Интерфейс : Встроенный Win32-интерфейс для Win NT/2000
Выходной формат : Внутренние WAV-операции
Формат сэмплов : 44.100 Гц; 16 бит; стерео
TOC извлечённого CD
Трек | Старт | Длительность | Начальный сектор | Конечный сектор
---------------------------------------------------------------------
1 | 0:00.00 | 3:10.01 | 0 | 14250
2 | 3:10.01 | 3:11.65 | 14251 | 28640
3 | 6:21.66 | 3:33.56 | 28641 | 44671
4 | 9:55.47 | 2:58.39 | 44672 | 58060
5 | 12:54.11 | 3:20.46 | 58061 | 73106
6 | 16:14.57 | 4:23.04 | 73107 | 92835
7 | 20:37.61 | 3:48.34 | 92836 | 109969
8 | 24:26.20 | 3:35.49 | 109970 | 126143
9 | 28:01.69 | 3:34.11 | 126144 | 142204
10 | 31:36.05 | 3:25.13 | 142205 | 157592
11 | 35:01.18 | 3:56.18 | 157593 | 175310
12 | 38:57.36 | 3:59.01 | 175311 | 193236
13 | 42:56.37 | 3:41.66 | 193237 | 209877
14 | 46:38.28 | 3:25.53 | 209878 | 225305
15 | 50:04.06 | 2:56.18 | 225306 | 238523
16 | 53:00.24 | 3:30.70 | 238524 | 254343
17 | 56:31.19 | 3:34.05 | 254344 | 270398
Характеристики диапазона извлечения и сообщения об ошибках
Выбранный диапазон
Имя файла C:\Arabesque Best Of Vol. III\CD-1\Arabesque - Arabesque - The Best Of Vol. 3 CD 1.wav
Пиковый уровень 98.8 %
Качество диапазона 100.0 %
CRC теста BD7DDBF5
CRC копии BD7DDBF5
Копирование... OK
Ошибок не произошло
AccurateRip: сводка
Трек 1 точное извлечение (доверие 5) [85DC0357]
Трек 2 точное извлечение (доверие 5) [7C25838D]
Трек 3 точное извлечение (доверие 5) [B069AAAD]
Трек 4 точное извлечение (доверие 5) [2B46E58F]
Трек 5 точное извлечение (доверие 5) [4A04E86B]
Трек 6 точное извлечение (доверие 5) [DBB4D269]
Трек 7 точное извлечение (доверие 5) [2C5C90BB]
Трек 8 точное извлечение (доверие 5) [55EC30B4]
Трек 9 точное извлечение (доверие 5) [329E4F78]
Трек 10 точное извлечение (доверие 5) [9FB5135C]
Трек 11 точное извлечение (доверие 5) [77DC5F4E]
Трек 12 точное извлечение (доверие 5) [0211D18F]
Трек 13 точное извлечение (доверие 5) [38B6ED5B]
Трек 14 точное извлечение (доверие 5) [071368A3]
Трек 15 точное извлечение (доверие 4) [DDB555B7]
Трек 16 точное извлечение (доверие 4) [0E1A7BC7]
Трек 17 точное извлечение (доверие 4) [49867BD2]
Все треки извлечены точно
Конец отчёта
CD2
Exact Audio Copy V0.99 prebeta 5 from 4. May 2009
Отчёт EAC об извлечении, выполненном 23. августа 2011, 20:11
Arabesque / Arabesque - The Best Of (Vol. III) (CD2)
Дисковод: PLEXTOR CD-R PREMIUM2 Adapter: 0 ID: 0
Режим чтения : Достоверность
Использование точного потока : Да
Отключение кэша аудио : Да
Использование указателей C2 : Нет
Коррекция смещения при чтении : 30
Способность читать области Lead-in и Lead-out : Нет
Заполнение пропущенных сэмплов тишиной : Да
Удаление блоков с тишиной в начале и конце : Нет
При вычислениях CRC использовались нулевые сэмплы : Да
Интерфейс : Встроенный Win32-интерфейс для Win NT/2000
Выходной формат : Внутренние WAV-операции
Формат сэмплов : 44.100 Гц; 16 бит; стерео
TOC извлечённого CD
Трек | Старт | Длительность | Начальный сектор | Конечный сектор
---------------------------------------------------------------------
1 | 0:00.00 | 3:56.55 | 0 | 17754
2 | 3:56.55 | 3:07.18 | 17755 | 31797
3 | 7:03.73 | 3:23.49 | 31798 | 47071
4 | 10:27.47 | 3:15.24 | 47072 | 61720
5 | 13:42.71 | 3:39.30 | 61721 | 78175
6 | 17:22.26 | 3:28.21 | 78176 | 93796
7 | 20:50.47 | 4:03.49 | 93797 | 112070
8 | 24:54.21 | 4:04.08 | 112071 | 130378
9 | 28:58.29 | 4:15.73 | 130379 | 149576
10 | 33:14.27 | 6:44.10 | 149577 | 179886
11 | 39:58.37 | 7:02.63 | 179887 | 211599
12 | 47:01.25 | 4:10.20 | 211600 | 230369
13 | 51:11.45 | 5:13.09 | 230370 | 253853
14 | 56:24.54 | 5:16.61 | 253854 | 277614
Характеристики диапазона извлечения и сообщения об ошибках
Выбранный диапазон
Имя файла C:\Arabesque Best Of Vol. III\CD-2\Arabesque - Arabesque - The Best Of (Vol. III) (CD2).wav
Пиковый уровень 98.8 %
Качество диапазона 99.9 %
CRC теста 1BE769D4
CRC копии 1BE769D4
Копирование... OK
Ошибок не произошло
AccurateRip: сводка
Трек 1 точное извлечение (доверие 5) [73FF0008]
Трек 2 точное извлечение (доверие 5) [CFADE7D7]
Трек 3 точное извлечение (доверие 5) [6CA885EE]
Трек 4 точное извлечение (доверие 5) [69CE24E0]
Трек 5 точное извлечение (доверие 5) [EC298CF3]
Трек 6 точное извлечение (доверие 5) [749CEF64]
Трек 7 точное извлечение (доверие 5) [BF8D40AC]
Трек 8 точное извлечение (доверие 5) [0E8A2AC2]
Трек 9 точное извлечение (доверие 5) [C0C54DCC]
Трек 10 точное извлечение (доверие 5) [A17667B0]
Трек 11 точное извлечение (доверие 5) [05675731]
Трек 12 точное извлечение (доверие 5) [BEE3F877]
Трек 13 точное извлечение (доверие 5) [71C01400]
Трек 14 точное извлечение (доверие 5) [38F4ED93]
Все треки извлечены точно
Конец отчёта
[Торрент-статистика]
[Профиль]  [ЛС] 
Показать сообщения:    
Ответить на тему

Текущее время: Сегодня 05:55

Часовой пояс: GMT + 4



Вы не можете начинать темы
Вы не можете отвечать на сообщения
Вы не можете редактировать свои сообщения
Вы не можете удалять свои сообщения
Вы не можете голосовать в опросах
Вы не можете прикреплять файлы к сообщениям
Вы не можете скачивать файлы