Mr. Zivago - Tell By Your Eyes (Album + Maxi-Single) (Japan) 1993-1992, (Italo Disco), FLAC (image+.cue) lossless

Ответить на тему
 
Автор
Сообщение

Admiral ®

Пол:

Стаж: 7 лет 2 месяца

Сообщений: 606

Репутация: 146 [+] [-]

Пост 10-Июл-2014 17:45

[Цитировать] 

--Mr. Zivago - Tell By Your Eyes
Real Name: Massimo Rastrelli
-- Жанр: Italo Disco
Страна-производитель диска: Japan
Год издания диска: 1993
Издатель (лейбл): Alfa International
Номер по каталогу: ALCB-799
Страна: Italy
Аудио кодек: FLAC (*.flac)
Тип рипа: image+.cue
Битрейт аудио: lossless
Продолжительность: 00:59:05
Наличие сканов в содержимом раздачи: 600dpi - jpeg.
Треклист:

1 Tell By Your Eyes 6:24
2 Say Yes 4:23
3 Alive 4:17
4 Show The Love 4:54
5 Welcom To The Edge 4:17
6 Just For You To Be There 4:59
7 Sadness Is Like Snow 5:20
8 I Will 4:35
9 You're The Only 5:03
10 Gloria 4:35
11 Promises Bridge 4:20
12 Yesterday 5:53

EAC

Exact Audio Copy V0.99 prebeta 5 from 4. May 2009
Отчёт EAC об извлечении, выполненном 16. января 2011, 23:02
Mr. Zivago / Tell By Your Eyes
Дисковод: PLEXTOR CD-R PREMIUM2 Adapter: 0 ID: 0
Режим чтения : Достоверность
Использование точного потока : Да
Отключение кэша аудио : Да
Использование указателей C2 : Нет
Коррекция смещения при чтении : 30
Способность читать области Lead-in и Lead-out : Нет
Заполнение пропущенных сэмплов тишиной : Да
Удаление блоков с тишиной в начале и конце : Нет
При вычислениях CRC использовались нулевые сэмплы : Да
Интерфейс : Встроенный Win32-интерфейс для Win NT/2000
Выходной формат : Внутренние WAV-операции
Формат сэмплов : 44.100 Гц; 16 бит; стерео
TOC извлечённого CD
Трек | Старт | Длительность | Начальный сектор | Конечный сектор
---------------------------------------------------------------------
1 | 0:00.00 | 6:24.27 | 0 | 28826
2 | 6:24.27 | 4:23.53 | 28827 | 48604
3 | 10:48.05 | 4:17.12 | 48605 | 67891
4 | 15:05.17 | 4:54.40 | 67892 | 89981
5 | 19:59.57 | 4:17.00 | 89982 | 109256
6 | 24:16.57 | 4:59.73 | 109257 | 131754
7 | 29:16.55 | 5:20.65 | 131755 | 155819
8 | 34:37.45 | 4:35.12 | 155820 | 176456
9 | 39:12.57 | 5:03.28 | 176457 | 199209
10 | 44:16.10 | 4:35.55 | 199210 | 219889
11 | 48:51.65 | 4:20.30 | 219890 | 239419
12 | 53:12.20 | 5:53.27 | 239420 | 265921
Характеристики диапазона извлечения и сообщения об ошибках
Выбранный диапазон
Имя файла C:\Mr. Zivago - Tell By Your Eyes.wav
Пиковый уровень 100.0 %
Качество диапазона 100.0 %
CRC теста B1B5FC95
CRC копии B1B5FC95
Копирование... OK
Ошибок не произошло
AccurateRip: сводка
Трек 1 нет в базе данных
Трек 2 нет в базе данных
Трек 3 нет в базе данных
Трек 4 нет в базе данных
Трек 5 нет в базе данных
Трек 6 нет в базе данных
Трек 7 нет в базе данных
Трек 8 нет в базе данных
Трек 9 нет в базе данных
Трек 10 нет в базе данных
Трек 11 нет в базе данных
Трек 12 нет в базе данных
Ни одного трека нет в базе AccurateRip
Конец отчёта
--Mr. Zivago - Tell By Your Eyes (Maxi-Single)-- Жанр: Italo Disco
Страна-производитель диска: Japan
Год издания диска: 1992
Издатель (лейбл): Alfa International
Номер по каталогу: ALCB-615
Страна: Italy
Аудио кодек: FLAC (*.flac)
Тип рипа: image+.cue
Битрейт аудио: lossless
Продолжительность: 00:18:28
Наличие сканов в содержимом раздачи: 600dpi - jpeg.
Треклист:

1 Tell By Your Eyes (7" Version) 4:40
2 Little Russian (Vocal Version) 4:13
3 Love In Moscow (Vocal Version) 5:17
4 Tell By Your Eyes (Instrumental) 4:13

EAC

Exact Audio Copy V0.99 prebeta 5 from 4. May 2009
Отчёт EAC об извлечении, выполненном 16. января 2011, 23:36
Mr. Zivago / Tell by Your Eyes
Дисковод: PLEXTOR CD-R PREMIUM2 Adapter: 0 ID: 0
Режим чтения : Достоверность
Использование точного потока : Да
Отключение кэша аудио : Да
Использование указателей C2 : Нет
Коррекция смещения при чтении : 30
Способность читать области Lead-in и Lead-out : Нет
Заполнение пропущенных сэмплов тишиной : Да
Удаление блоков с тишиной в начале и конце : Нет
При вычислениях CRC использовались нулевые сэмплы : Да
Интерфейс : Встроенный Win32-интерфейс для Win NT/2000
Выходной формат : Внутренние WAV-операции
Формат сэмплов : 44.100 Гц; 16 бит; стерео
TOC извлечённого CD
Трек | Старт | Длительность | Начальный сектор | Конечный сектор
---------------------------------------------------------------------
1 | 0:00.00 | 4:41.55 | 0 | 21129
2 | 4:41.55 | 4:13.22 | 21130 | 40126
3 | 8:55.02 | 5:18.53 | 40127 | 64029
4 | 14:13.55 | 4:15.07 | 64030 | 83161
Характеристики диапазона извлечения и сообщения об ошибках
Выбранный диапазон
Имя файла C:\Mr. Zivago - Tell by Your Eyes.wav
Пиковый уровень 100.0 %
Качество диапазона 100.0 %
CRC теста 09E2367A
CRC копии 09E2367A
Копирование... OK
Ошибок не произошло
AccurateRip: сводка
Трек 1 нет в базе данных
Трек 2 нет в базе данных
Трек 3 нет в базе данных
Трек 4 нет в базе данных
Ни одного трека нет в базе AccurateRip
Конец отчёта
[Торрент-статистика]
[Профиль]  [ЛС] 
Показать сообщения:    
Ответить на тему

Текущее время: Сегодня 08:34

Часовой пояс: GMT + 4



Вы не можете начинать темы
Вы не можете отвечать на сообщения
Вы не можете редактировать свои сообщения
Вы не можете удалять свои сообщения
Вы не можете голосовать в опросах
Вы не можете прикреплять файлы к сообщениям
Вы не можете скачивать файлы