The Flirts (5CD, Collection) 1984-1993, (Disco, Italo-Disco, Hi-NRG), FLAC (image+.cue), lossless

Ответить на тему
 
Автор
Сообщение

Admiral ®

Пол:

Стаж: 7 лет 2 месяца

Сообщений: 606

Репутация: 146 [+] [-]

Пост 07-Июл-2014 11:38

[Цитировать] 

The Flirts (5CD)
(Collection, 1984-1993)

Made In America + Blondes Brunetess & Readheads +
The Best Of Flirts + The Flirts The Gallery Vol.7

Жанр: Disco, Italo-Disco, Hi-NRG
Страна-производитель диска: US, Germany
Год издания: 1994(1984) + 1994(1985) + 1991+ 1991 + 1993
Издатель (лейбл): Hot + Castle Communications
Номер по каталогу: HTCD 6648 + HTCD 6647+ HTCD 14+ Castle CGC 6018 + Castle CSC 7107
Страна: US
Аудиокодек: FLAC (*.flac)
Тип рипа: image+.cue
Битрейт аудио: lossless
Продолжительность: 38:27 + 37:31 + 1:04:26+ 22:42 + 1:10:55
Наличие сканов в содержимом раздачи: да

Made In America 1994 (1984) (HOT HTCD 6648)

01. Helpless 7:42
02. He Looks A Lot Like You 3:42
03. Temptation 4:12
04. Time Is Right 3:36
05. Dancing Madly Backwards 3:16
06. This Time 4:19
07. Making Time 3:38
08. Physical Attraction 3:47
09. I Wanna Rock 4:07

Отчёт EAC

Exact Audio Copy V1.0 beta 3 from 29. August 2011
Отчёт EAC об извлечении, выполненном 4. января 2013, 2:08
The Flirts / Made In America
Дисковод: PLEXTOR CD-R PREMIUM2 Adapter: 0 ID: 0
Режим чтения : Достоверность
Использование точного потока : Да
Отключение кэша аудио : Да
Использование указателей C2 : Нет
Коррекция смещения при чтении : 30
Способность читать области Lead-in и Lead-out : Нет
Заполнение пропущенных сэмплов тишиной : Да
Удаление блоков с тишиной в начале и конце : Нет
При вычислениях CRC использовались нулевые сэмплы : Да
Интерфейс : Встроенный Win32-интерфейс для Win NT/2000
Выходной формат : Внутренние WAV-операции
Формат сэмплов : 44.100 Гц; 16 бит; стерео
TOC извлечённого CD
Трек | Старт | Длительность | Начальный сектор | Конечный сектор
---------------------------------------------------------------------
1 | 0:00.32 | 7:46.58 | 32 | 35039
2 | 7:47.15 | 3:42.30 | 35040 | 51719
3 | 11:29.45 | 4:14.10 | 51720 | 70779
4 | 15:43.55 | 3:36.32 | 70780 | 87011
5 | 19:20.12 | 3:15.48 | 87012 | 101684
6 | 22:35.60 | 4:19.37 | 101685 | 121146
7 | 26:55.22 | 3:37.60 | 121147 | 137481
8 | 30:33.07 | 3:47.15 | 137482 | 154521
9 | 34:20.22 | 4:07.10 | 154522 | 173056
Характеристики диапазона извлечения и сообщения об ошибках
Выбранный диапазон
Имя файла D:\The Flirts - Made In America (HOT HTCD 6648)\The Flirts - Made In America.wav
Пиковый уровень 95.5 %
Скорость извлечения 5.5 X
Качество диапазона 100 %
CRC теста 052022AA
CRC копии 052022AA
Копирование... OK
Ошибок не произошло
AccurateRip: сводка
Трек 1 : извлечено точно (доверие 3) [B8F892C6] (AR v1)
Трек 2 : извлечено точно (доверие 3) [5DDB8295] (AR v1)
Трек 3 : извлечено точно (доверие 3) [D7576274] (AR v1)
Трек 4 : извлечено точно (доверие 3) [CF867C9D] (AR v1)
Трек 5 : извлечено точно (доверие 3) [661B8C48] (AR v1)
Трек 6 : извлечено точно (доверие 3) [DCC2674C] (AR v1)
Трек 7 : извлечено точно (доверие 3) [93E4C514] (AR v1)
Трек 8 : извлечено точно (доверие 3) [F4F51B80] (AR v1)
Трек 9 : извлечено точно (доверие 3) [C7E160E5] (AR v1)
Все треки извлечены точно
Конец отчёта

Blondes Brunetess & Readheads 1994 (1985) (HOT HTCD 6647)

01. You & Me 4:29
02. New Toy 5:21
03. Voulez Vous 3:10
04. Come To Me 4:06
05. I Wanna Wear Your Ring 3:47
06. Crazy Guy 3:51
07. Just Another Heartache 4:20
08. Island Boy 3:39
09. Opposites Attract 4:45

Отчёт EAC

Exact Audio Copy V1.0 beta 3 from 29. August 2011
Отчёт EAC об извлечении, выполненном 4. января 2013, 1:06
Flirts (The) / Blondes Brunettes & Redheads
Дисковод: PLEXTOR CD-R PREMIUM2 Adapter: 0 ID: 0
Режим чтения : Достоверность
Использование точного потока : Да
Отключение кэша аудио : Да
Использование указателей C2 : Нет
Коррекция смещения при чтении : 30
Способность читать области Lead-in и Lead-out : Нет
Заполнение пропущенных сэмплов тишиной : Да
Удаление блоков с тишиной в начале и конце : Нет
При вычислениях CRC использовались нулевые сэмплы : Да
Интерфейс : Встроенный Win32-интерфейс для Win NT/2000
Выходной формат : Внутренние WAV-операции
Формат сэмплов : 44.100 Гц; 16 бит; стерео
TOC извлечённого CD
Трек | Старт | Длительность | Начальный сектор | Конечный сектор
---------------------------------------------------------------------
1 | 0:00.32 | 4:28.70 | 32 | 20201
2 | 4:29.27 | 5:20.53 | 20202 | 44254
3 | 9:50.05 | 3:10.17 | 44255 | 58521
4 | 13:00.22 | 4:05.50 | 58522 | 76946
5 | 17:05.72 | 3:46.70 | 76947 | 93966
6 | 20:52.67 | 3:51.20 | 93967 | 111311
7 | 24:44.12 | 4:23.25 | 111312 | 131061
8 | 29:07.37 | 3:39.10 | 131062 | 147496
9 | 32:46.47 | 4:45.18 | 147497 | 168889
Характеристики диапазона извлечения и сообщения об ошибках
Выбранный диапазон
Имя файла D:\The Flirts - Blondes Bunetess & Readheads (HOT HTCD 6647)\Flirts (The) - Blondes Brunettes & Redheads.wav
Пиковый уровень 95.5 %
Скорость извлечения 5.6 X
Качество диапазона 100.0 %
CRC теста C382E257
CRC копии C382E257
Копирование... OK
Ошибок не произошло
AccurateRip: сводка
Трек 1 : извлечено точно (доверие 1) [BA999509] (AR v1)
Трек 2 : извлечено точно (доверие 1) [FD7F56B2] (AR v1)
Трек 3 : извлечено точно (доверие 1) [68938B10] (AR v1)
Трек 4 : извлечено точно (доверие 1) [2EBEEEDF] (AR v1)
Трек 5 : извлечено точно (доверие 1) [B14C2CAD] (AR v1)
Трек 6 : извлечено точно (доверие 1) [A34B3133] (AR v1)
Трек 7 : извлечено точно (доверие 1) [1FB9044E] (AR v1)
Трек 8 : извлечено точно (доверие 1) [84CA9818] (AR v1)
Трек 9 : извлечено точно (доверие 1) [BF4B81EA] (AR v1)
Все треки извлечены точно
Конец отчёта

The Best Of The Flirts (1991) (HOT HTCD 14)

01. Passion 5:06
02. Calling All Boys 4:32
03. Jukebox 3:44
04. Boy Crazy 3:11
05. On The Beach 2:58
06. We Just Want To Dance 2:45
07. Jungle Rock 3:06
08. Helpless 6:03
09. Danger 4:38
10. Dancin' Madley Backwards 3:11
11. You And Me 6:05
12. New Toy 6:14
13. All You Ever Think About Is Sex 3:57
14. After Midnight 3:35
15. Miss You 5:22

Отчёт EAC

Exact Audio Copy V1.0 beta 3 from 29. August 2011
Отчёт EAC об извлечении, выполненном 2. января 2013, 2:03
The Flirts / The Best Of The Flirts
Дисковод: PLEXTOR CD-R PREMIUM2 Adapter: 0 ID: 0
Режим чтения : Достоверность
Использование точного потока : Да
Отключение кэша аудио : Да
Использование указателей C2 : Нет
Коррекция смещения при чтении : 30
Способность читать области Lead-in и Lead-out : Нет
Заполнение пропущенных сэмплов тишиной : Да
Удаление блоков с тишиной в начале и конце : Нет
При вычислениях CRC использовались нулевые сэмплы : Да
Интерфейс : Встроенный Win32-интерфейс для Win NT/2000
Выходной формат : Внутренние WAV-операции
Формат сэмплов : 44.100 Гц; 16 бит; стерео
TOC извлечённого CD
Трек | Старт | Длительность | Начальный сектор | Конечный сектор
---------------------------------------------------------------------
1 | 0:00.00 | 5:06.17 | 0 | 22966
2 | 5:06.17 | 4:32.28 | 22967 | 43394
3 | 9:38.45 | 3:43.65 | 43395 | 60184
4 | 13:22.35 | 3:10.50 | 60185 | 74484
5 | 16:33.10 | 2:57.60 | 74485 | 87819
6 | 19:30.70 | 2:44.57 | 87820 | 100176
7 | 22:15.52 | 3:05.55 | 100177 | 114106
8 | 25:21.32 | 6:03.20 | 114107 | 141351
9 | 31:24.52 | 4:38.05 | 141352 | 162206
10 | 36:02.57 | 3:10.65 | 162207 | 176521
11 | 39:13.47 | 6:04.38 | 176522 | 203859
12 | 45:18.10 | 6:14.10 | 203860 | 231919
13 | 51:32.20 | 3:56.50 | 231920 | 249669
14 | 55:28.70 | 3:35.00 | 249670 | 265794
15 | 59:03.70 | 5:22.12 | 265795 | 289956
Характеристики диапазона извлечения и сообщения об ошибках
Выбранный диапазон
Имя файла D:\The Best Of Flirts (HOT HTCD 14)\The Flirts - The Best Of The Flirts.wav
Пиковый уровень 100.0 %
Скорость извлечения 5.2 X
Качество диапазона 100.0 %
CRC теста 030565E8
CRC копии 030565E8
Копирование... OK
Ошибок не произошло
AccurateRip: сводка
Трек 1 отсутствует в базе данных
Трек 2 : извлечено точно (доверие 2) [C0BF9467] (AR v1)
Трек 3 : извлечено точно (доверие 2) [581B6DD5] (AR v1)
Трек 4 : извлечено точно (доверие 2) [96415692] (AR v1)
Трек 5 : извлечено точно (доверие 2) [ADCAECE3] (AR v1)
Трек 6 : извлечено точно (доверие 2) [7638F525] (AR v1)
Трек 7 : извлечено точно (доверие 2) [D0A872A5] (AR v1)
Трек 8 : извлечено точно (доверие 2) [A1B03488] (AR v1)
Трек 9 : извлечено точно (доверие 2) [E3A61557] (AR v1)
Трек 10 : извлечено точно (доверие 2) [B2AAAFA3] (AR v1)
Трек 11 : извлечено точно (доверие 2) [DF84E30D] (AR v1)
Трек 12 : извлечено точно (доверие 2) [C2BA1A99] (AR v1)
Трек 13 : извлечено точно (доверие 2) [0037907B] (AR v1)
Трек 14 : извлечено точно (доверие 2) [9721A9AA] (AR v1)
Трек 15 : извлечено точно (доверие 2) [DFB1C412] (AR v1)
14 трек(и) скопированы точно
1 трек(и) не содержатся в базе AccurateRip
Некоторые треки не прошли проверку на точность
Конец отчёта

The Flirts - Castle Gold Collection, Vol. 18 [DE] [CD-Maxi] (1991) (Castle Communications CGC 6018)

01. Passion 5:01
02. Helpless 6:51
03. Calling All Boys 4:27
04. Danger 6:17

Отчёт EAC

Exact Audio Copy V0.99 prebeta 5 from 4. May 2009
Отчёт EAC об извлечении, выполненном 25. мая 2011, 19:13
The Flirts / Castle Gold Collection, Vol. 18 [DE] [Maxi]
Дисковод: PLEXTOR CD-R PREMIUM2 Adapter: 0 ID: 0
Режим чтения : Достоверность
Использование точного потока : Да
Отключение кэша аудио : Да
Использование указателей C2 : Нет
Коррекция смещения при чтении : 30
Способность читать области Lead-in и Lead-out : Нет
Заполнение пропущенных сэмплов тишиной : Да
Удаление блоков с тишиной в начале и конце : Нет
При вычислениях CRC использовались нулевые сэмплы : Да
Интерфейс : Встроенный Win32-интерфейс для Win NT/2000
Выходной формат : Внутренние WAV-операции
Формат сэмплов : 44.100 Гц; 16 бит; стерео
TOC извлечённого CD
Трек | Старт | Длительность | Начальный сектор | Конечный сектор
---------------------------------------------------------------------
1 | 0:00.00 | 5:03.52 | 0 | 22776
2 | 5:03.52 | 6:52.33 | 22777 | 53709
3 | 11:56.10 | 4:29.05 | 53710 | 73889
4 | 16:25.15 | 6:16.45 | 73890 | 102134
Характеристики диапазона извлечения и сообщения об ошибках
Выбранный диапазон
Имя файла C:Castle Gold Collection, Vol. 18 [DE] [Maxi]\The Flirts - Castle Gold Collection, Vol. 18 [DE] [Maxi].wav
Пиковый уровень 99.4 %
Качество диапазона 99.9 %
CRC теста EB090447
CRC копии EB090447
Копирование... OK
Ошибок не произошло
AccurateRip: сводка
Трек 1 точное извлечение (доверие 5) [9013F0B0]
Трек 2 точное извлечение (доверие 5) [FB406755]
Трек 3 точное извлечение (доверие 7) [9B00C60B]
Трек 4 точное извлечение (доверие 6) [B9BD904E]
Все треки извлечены точно
Конец отчёта

The Flirts The Gallery Vol.7 (1993) (Castle Communications CSC 7107)

01. Passion (Special Maxi Version) 9:07
02. Helpless 5:58
03. Danger 4:37
04. Calling All Boys 4:25
05. Jukebox (Don't Put Another Dime) 3:39
06. Boy Crazy 3:07
07. On The Beach 2:55
08. We Just Want To Dance 2:44
09. Jungle Rock 3:05
10. Dancin' Madly Backwards 3:09
11. After Midnight 3:34
12. You And Me 6:03
13. New Toy 6:10
14. All You Ever Think About Is Sex 3:57
15. Miss You 5:22
16. Surf's Up 3:02

ОтчётEAC

Exact Audio Copy V0.99 prebeta 5 from 4. May 2009
Отчёт EAC об извлечении, выполненном 25. мая 2011, 19:58
The Flirts / The Gallery
Дисковод: PLEXTOR CD-R PREMIUM2 Adapter: 0 ID: 0
Режим чтения : Достоверность
Использование точного потока : Да
Отключение кэша аудио : Да
Использование указателей C2 : Нет
Коррекция смещения при чтении : 30
Способность читать области Lead-in и Lead-out : Нет
Заполнение пропущенных сэмплов тишиной : Да
Удаление блоков с тишиной в начале и конце : Нет
При вычислениях CRC использовались нулевые сэмплы : Да
Интерфейс : Встроенный Win32-интерфейс для Win NT/2000
Выходной формат : Внутренние WAV-операции
Формат сэмплов : 44.100 Гц; 16 бит; стерео
TOC извлечённого CD
Трек | Старт | Длительность | Начальный сектор | Конечный сектор
---------------------------------------------------------------------
1 | 0:00.00 | 9:07.35 | 0 | 41059
2 | 9:07.35 | 5:58.12 | 41060 | 67921
3 | 15:05.47 | 4:36.53 | 67922 | 88674
4 | 19:42.25 | 4:25.35 | 88675 | 108584
5 | 24:07.60 | 3:39.30 | 108585 | 125039
6 | 27:47.15 | 3:07.15 | 125040 | 139079
7 | 30:54.30 | 2:55.02 | 139080 | 152206
8 | 33:49.32 | 2:43.48 | 152207 | 164479
9 | 36:33.05 | 3:05.00 | 164480 | 178354
10 | 39:38.05 | 3:09.20 | 178355 | 192549
11 | 42:47.25 | 3:34.10 | 192550 | 208609
12 | 46:21.35 | 6:02.50 | 208610 | 235809
13 | 52:24.10 | 6:10.15 | 235810 | 263574
14 | 58:34.25 | 3:56.70 | 263575 | 281344
15 | 62:31.20 | 5:22.05 | 281345 | 305499
16 | 67:53.25 | 3:01.50 | 305500 | 319124
Характеристики диапазона извлечения и сообщения об ошибках
Выбранный диапазон
Имя файла C:The Flirts - The Gallery Vol.7\The Flirts - The Gallery.wav
Пиковый уровень 98.6 %
Качество диапазона 100.0 %
CRC теста 157E074A
CRC копии 157E074A
Копирование... OK
Ошибок не произошло
AccurateRip: сводка
Трек 1 точное извлечение (доверие 2) [69B80194]
Трек 2 точное извлечение (доверие 2) [792FA2C5]
Трек 3 точное извлечение (доверие 2) [2303A092]
Трек 4 точное извлечение (доверие 2) [9C2DFED5]
Трек 5 точное извлечение (доверие 2) [58E90B73]
Трек 6 точное извлечение (доверие 2) [A37FA26C]
Трек 7 точное извлечение (доверие 2) [54E8B560]
Трек 8 точное извлечение (доверие 2) [D798F0C1]
Трек 9 точное извлечение (доверие 2) [FC45A8A7]
Трек 10 точное извлечение (доверие 2) [9BC140D4]
Трек 11 нет в базе данных
Трек 12 точное извлечение (доверие 2) [BAC40CAF]
Трек 13 точное извлечение (доверие 2) [01CE013E]
Трек 14 точное извлечение (доверие 2) [38F30657]
Трек 15 точное извлечение (доверие 2) [6890BA04]
Трек 16 точное извлечение (доверие 2) [DBBE8750]
15 трек(и) скопированы точно
1 трек(и) не содержатся в базе AccurateRip
Некоторые треки не прошли проверку на точность
Конец отчёта
[Торрент-статистика]
[Профиль]  [ЛС] 
Показать сообщения:    
Ответить на тему

Текущее время: Сегодня 08:16

Часовой пояс: GMT + 4



Вы не можете начинать темы
Вы не можете отвечать на сообщения
Вы не можете редактировать свои сообщения
Вы не можете удалять свои сообщения
Вы не можете голосовать в опросах
Вы не можете прикреплять файлы к сообщениям
Вы не можете скачивать файлы