[CD] Сергей Минаев - Коллекция © 1993, (Pop), FLAC (image+.cue), lossless

Ответить на тему
 
Автор
Сообщение

Admiral ®

Пол:

Стаж: 7 лет 2 месяца

Сообщений: 606

Репутация: 146 [+] [-]

Пост 29-Июн-2014 21:22

[Цитировать] 

--Сергей Минаев - Коллекция-- Жанр: Pop
Страна-производитель диска: Russia
Год издания: 1993
Издатель (лейбл): Jeff Records/Studio Service
Номер по каталогу: SS 93 008
Страна: USSR
Аудиокодек: FLAC (*.flac)
Тип рипа: image+.cue
Битрейт аудио: lossless
Продолжительность: 00:47:51
Наличие сканов в содержимом раздачи: да
Треклист:

01. Карнавал 4:24
02. Шери-бренди 3:12
03. Братец Луи 4:05
04. Рэп Диск-жокея 4:39
05. Вояж 4:45
06. Начинается свастика 3:17
07. Мини-макси 4:47
08. 22 притопа 3:22
09. Свеча на ветру 3:21
10. Лучшая песня 3:53
11. Вы готовы? 4:21
12. Родная речь 3:22

Отчёт EAC

Exact Audio Copy V1.0 beta 3 from 29. August 2011
Отчёт EAC об извлечении, выполненном 17. июня 2014, 5:49
Сергей Минаев / Коллекция
Дисковод: ATAPI iHAS124 W Adapter: 0 ID: 1
Режим чтения : Достоверность
Использование точного потока : Да
Отключение кэша аудио : Да
Использование указателей C2 : Нет
Коррекция смещения при чтении : 48
Способность читать области Lead-in и Lead-out : Нет
Заполнение пропущенных сэмплов тишиной : Да
Удаление блоков с тишиной в начале и конце : Нет
При вычислениях CRC использовались нулевые сэмплы : Да
Интерфейс : Встроенный Win32-интерфейс для Win NT/2000
Выходной формат : Пользовательский кодировщик
Выбранный битрейт : 768 kBit/s
Качество : Высокий
Добавление ID3-тега : Нет
Утилита сжатия : C:\Program Files\Exact Audio Copy\FLAC\FLAC.EXE
Дополнительные параметры : -6 -V -T "ARTIST=%artist%" -T "TITLE=%title%" -T "ALBUM=%albumtitle%" -T "DATE=%year%" -T "TRACKNUMBER=%tracknr%" -T "GENRE=%genre%" -T "COMMENT=%comment%" -T "BAND=%albuminterpret%" -T "ALBUMARTIST=%albuminterpret%" -T "COMPOSER=%composer%" %haslyrics%--tag-from-file=LYRICS="%lyricsfile%"%haslyrics% -T "DISCNUMBER=%cdnumber%" -T "TOTALDISCS=%totalcds%" -T "TOTALTRACKS=%numtracks%" %hascover%--picture="%coverfile%"%hascover% %source% -o %dest%
TOC извлечённого CD
Трек | Старт | Длительность | Начальный сектор | Конечный сектор
---------------------------------------------------------------------
1 | 0:00.05 | 4:25.50 | 5 | 19929
2 | 4:25.55 | 3:13.45 | 19930 | 34449
3 | 7:39.25 | 4:07.25 | 34450 | 52999
4 | 11:46.50 | 4:41.10 | 53000 | 74084
5 | 16:27.60 | 4:46.40 | 74085 | 95574
6 | 21:14.25 | 3:18.45 | 95575 | 110469
7 | 24:32.70 | 4:48.45 | 110470 | 132114
8 | 29:21.40 | 3:24.13 | 132115 | 147427
9 | 32:45.53 | 3:23.27 | 147428 | 162679
10 | 36:09.05 | 3:55.15 | 162680 | 180319
11 | 40:04.20 | 4:22.73 | 180320 | 200042
12 | 44:27.18 | 3:24.02 | 200043 | 215344
Характеристики диапазона извлечения и сообщения об ошибках
Выбранный диапазон
Имя файла C:\Сергей Минаев - Коллекция\Сергей Минаев - Коллекция.wav
Пиковый уровень 100.0 %
Скорость извлечения 7.0 X
Качество диапазона 99.9 %
CRC теста 90862EF6
CRC копии 90862EF6
Копирование... OK
Ошибок не произошло
AccurateRip: сводка
Трек 1 отсутствует в базе данных
Трек 2 отсутствует в базе данных
Трек 3 отсутствует в базе данных
Трек 4 отсутствует в базе данных
Трек 5 отсутствует в базе данных
Трек 6 отсутствует в базе данных
Трек 7 отсутствует в базе данных
Трек 8 отсутствует в базе данных
Трек 9 отсутствует в базе данных
Трек 10 отсутствует в базе данных
Трек 11 отсутствует в базе данных
Трек 12 отсутствует в базе данных
Ни одного трека нет в базе AccurateRip
Конец отчёта
[Торрент-статистика]
[Профиль]  [ЛС] 
Показать сообщения:    
Ответить на тему

Текущее время: Сегодня 02:04

Часовой пояс: GMT + 4



Вы не можете начинать темы
Вы не можете отвечать на сообщения
Вы не можете редактировать свои сообщения
Вы не можете удалять свои сообщения
Вы не можете голосовать в опросах
Вы не можете прикреплять файлы к сообщениям
Вы не можете скачивать файлы