Jive Bunny And The Mastermixers - The Album - 1989, (Pop/Rock & Roll), FLAC (image+.cue), lossless

Ответить на тему
 
Автор
Сообщение

Admiral ®

Пол:

Стаж: 7 лет 2 месяца

Сообщений: 606

Репутация: 146 [+] [-]

Пост 26-Июн-2014 22:12

[Цитировать] 

--Jive Bunny And The Mastermixers - The Album-- Жанр: Pop/Rock & Roll
Страна-производитель диска: US
Год издания диска: 1989
Издатель (лейбл): ATCO Records
Номер по каталогу: 7 91322-2
Аудио кодек: FLAC (*.flac)
Тип рипа: image+.cue
Битрейт аудио: lossless
Продолжительность: 00:42:41
Наличие сканов в содержимом раздачи: да
Трэклист:
01. Swing The Mood 6:10
02. Rock And Roll Party Mix 3:49
03. Lover's Mix 5:41
04. Do You Wanna Rock 6:08
05. That's What I Like 5:27
06. Glenn Miller Medley 3:50
07. Swing Sisters Swing 5:21
08. Hopping Mad 5:55

Back

Отчёт EAC

Exact Audio Copy V0.99 prebeta 5 from 4. May 2009
Отчёт EAC об извлечении, выполненном 20. ноября 2010, 21:18
Jive Bunny And The Mastermixers / The Album
Дисковод: PIONEER DVD-RW DVR-107D Adapter: 3 ID: 0
Режим чтения : Достоверность
Использование точного потока : Да
Отключение кэша аудио : Да
Использование указателей C2 : Нет
Коррекция смещения при чтении : 48
Способность читать области Lead-in и Lead-out : Нет
Заполнение пропущенных сэмплов тишиной : Да
Удаление блоков с тишиной в начале и конце : Нет
При вычислениях CRC использовались нулевые сэмплы : Да
Интерфейс : Встроенный Win32-интерфейс для Win NT/2000
Выходной формат : Внутренние WAV-операции
Формат сэмплов : 44.100 Гц; 16 бит; стерео
TOC извлечённого CD
Трек | Старт | Длительность | Начальный сектор | Конечный сектор
---------------------------------------------------------------------
1 | 0:00.32 | 6:10.20 | 32 | 27801
2 | 6:10.52 | 3:48.73 | 27802 | 44974
3 | 9:59.50 | 5:41.15 | 44975 | 70564
4 | 15:40.65 | 6:08.37 | 70565 | 98201
5 | 21:49.27 | 5:26.55 | 98202 | 122706
6 | 27:16.07 | 3:50.15 | 122707 | 139971
7 | 31:06.22 | 5:21.13 | 139972 | 164059
8 | 36:27.35 | 5:54.70 | 164060 | 190679
Характеристики диапазона извлечения и сообщения об ошибках
Выбранный диапазон
Имя файла D:\All\Music\Jive Bunny And The Mastermixers - The Album\Jive Bunny And The Mastermixers - The Album.wav
Пиковый уровень 97.8 %
Качество диапазона 100.0 %
CRC теста 37436409
CRC копии 37436409
Копирование... OK
Ошибок не произошло
AccurateRip: сводка
Трек 1 точное извлечение (доверие 7) [39BBAA76]
Трек 2 точное извлечение (доверие 6) [350A3D42]
Трек 3 точное извлечение (доверие 6) [2F0F806F]
Трек 4 точное извлечение (доверие 6) [E00224DD]
Трек 5 точное извлечение (доверие 6) [5E70CE71]
Трек 6 точное извлечение (доверие 6) [C5971B33]
Трек 7 точное извлечение (доверие 6) [8E8F3436]
Трек 8 точное извлечение (доверие 6) [27D11EE2]
Все треки извлечены точно
Конец отчёта
[Торрент-статистика]
[Профиль]  [ЛС] 
Показать сообщения:    
Ответить на тему

Текущее время: Сегодня 06:07

Часовой пояс: GMT + 4



Вы не можете начинать темы
Вы не можете отвечать на сообщения
Вы не можете редактировать свои сообщения
Вы не можете удалять свои сообщения
Вы не можете голосовать в опросах
Вы не можете прикреплять файлы к сообщениям
Вы не можете скачивать файлы