Sabrina (Salerno) - Sabrina - 1987, (Italo-Disco), FLAC (image+.cue), lossless

Ответить на тему
 
Автор
Сообщение

Admiral ®

Пол:

Стаж: 7 лет 2 месяца

Сообщений: 606

Репутация: 146 [+] [-]

Пост 26-Июн-2014 21:26

[Цитировать] 

--Sabrina - Sabrina-- Жанр: Italo-Disco
Год выпуска диска: 1987
Производитель диска: France - Five Record
Аудио кодек: FLAC
Тип рипа: image+.cue
Битрейт аудио: lossless
Продолжительность: 00:35:43
Трэклист:
01. Boys (Summertime Love) 3:59
02. Hot Girl 3:42
03. Get Ready (Holiday Rock) 3:24
04. Kiss 3:40
05. Sexy Girl 3:23
06. Kiss Me 4:08
07. Lady Marmalade 4:08
08. My Sharona 4:44
09. Da Ya Think I'm Sexy 4:35

Back

Отчёт EAC

Exact Audio Copy V0.99 prebeta 5 from 4. May 2009
Отчёт EAC об извлечении, выполненном 11. января 2010, 0:28
Sabrina / Sabrina
Дисковод: PIONEER DVD-RW DVR-107D Adapter: 3 ID: 0
Режим чтения : Достоверность
Использование точного потока : Да
Отключение кэша аудио : Да
Использование указателей C2 : Нет
Коррекция смещения при чтении : 48
Способность читать области Lead-in и Lead-out : Нет
Заполнение пропущенных сэмплов тишиной : Да
Удаление блоков с тишиной в начале и конце : Нет
При вычислениях CRC использовались нулевые сэмплы : Да
Интерфейс : Установленный внешний ASPI-интерфейс
Выходной формат : Внутренние WAV-операции
Формат сэмплов : 44.100 Гц; 16 бит; стерео
TOC извлечённого CD
Трек | Старт | Длительность | Начальный сектор | Конечный сектор
---------------------------------------------------------------------
1 | 0:00.33 | 3:58.40 | 33 | 17922
2 | 3:58.73 | 3:41.72 | 17923 | 34569
3 | 7:40.70 | 3:24.25 | 34570 | 49894
4 | 11:05.20 | 3:39.65 | 49895 | 66384
5 | 14:45.10 | 3:23.25 | 66385 | 81634
6 | 18:08.35 | 4:08.13 | 81635 | 100247
7 | 22:16.48 | 4:08.22 | 100248 | 118869
8 | 26:24.70 | 4:44.00 | 118870 | 140169
9 | 31:08.70 | 4:34.45 | 140170 | 160764
Характеристики диапазона извлечения и сообщения об ошибках
Выбранный диапазон
Имя файла G:\All\Music\Sabrina - Sabrina\Sabrina - Sabrina.wav
Пиковый уровень 100.0 %
Качество диапазона 100.0 %
CRC теста 91C44457
CRC копии 91C44457
Копирование... OK
Ошибок не произошло
AccurateRip: сводка
Трек 1 точность не определена (достоверность 1) [E1F025BA], AccurateRip вернул [A4957AB5]
Трек 2 точность не определена (достоверность 1) [4C6E3C08], AccurateRip вернул [8CFAF9C8]
Трек 3 точность не определена (достоверность 1) [2544F631], AccurateRip вернул [48D36B56]
Трек 4 точность не определена (достоверность 1) [69E46CBB], AccurateRip вернул [25E92803]
Трек 5 точность не определена (достоверность 1) [CCFA08FA], AccurateRip вернул [5CDDCCA2]
Трек 6 точность не определена (достоверность 1) [611BEE86], AccurateRip вернул [64097A7D]
Трек 7 точность не определена (достоверность 1) [C147A6FB], AccurateRip вернул [ADEB0128]
Трек 8 точность не определена (достоверность 1) [0B244278], AccurateRip вернул [5F362715]
Трек 9 точность не определена (достоверность 1) [4D63CD61], AccurateRip вернул [9F08528F]
Ни один трек не прошёл проверки на точность
В вашей базе может быть иной вариант штамповки диска
Конец отчёта
[Торрент-статистика]
[Профиль]  [ЛС] 
Показать сообщения:    
Ответить на тему

Текущее время: Сегодня 08:19

Часовой пояс: GMT + 4



Вы не можете начинать темы
Вы не можете отвечать на сообщения
Вы не можете редактировать свои сообщения
Вы не можете удалять свои сообщения
Вы не можете голосовать в опросах
Вы не можете прикреплять файлы к сообщениям
Вы не можете скачивать файлы