Rofo - The CD-Album ('88 Remix Versions) - 1988, (Italo-Dance), APE (image+.cue), lossless

Ответить на тему
 
Автор
Сообщение

Admiral ®

Пол:

Стаж: 7 лет 2 месяца

Сообщений: 606

Репутация: 146 [+] [-]

Пост 26-Июн-2014 13:28

[Цитировать] 

--Rofo - The CD-Album ('88 Remix Versions)-- Жанр: Pop/Disco
Год выпуска диска: 1988
Производитель диска: Germany - Label: BCM Records
Аудио кодек: APE
Тип рипа: image+.cue
Битрейт аудио: lossless
Продолжительность: 00:55:34
Трэклист:
1 Rofo's Theme (5:20)
2 Rofo's Megamix (8:03)
3 Quanto Cuesta (5:46)
4 Miss Liberty (4:18)
5 Sweet Conversation (5:28)
6 I Want You (4:52)
7 Flashlight On A Disconight (7:46)
8 Tonight Is The Night (4:50)
9 You've Got To Move It On (4:55)
10 Beach Love (3:28)

Back CD


Отчёт EAC

Exact Audio Copy V0.99 prebeta 4 from 23. January 2008
Отчёт EAC об извлечении, выполненном 20. апреля 2009, 2:11
Rofo / The CD-Album
Дисковод: PIONEER DVD-RW DVR-112 Adapter: 0 ID: 1
Режим чтения : Достоверность
Использование точного потока : Да
Отключение кэша аудио : Да
Использование указателей C2 : Нет
Коррекция смещения при чтении : 48
Способность читать области Lead-in и Lead-out : Нет
Заполнение пропущенных сэмплов тишиной : Да
Удаление блоков с тишиной в начале и конце : Нет
При вычислениях CRC использовались нулевые сэмплы : Да
Интерфейс : Установленный внешний ASPI-интерфейс
Выходной формат : Внутренние WAV-операции
Формат сэмплов : 44.100 Гц; 16 бит; стерео
TOC извлечённого CD
Трек | Старт | Длительность | Начальный сектор | Конечный сектор
---------------------------------------------------------------------
1 | 0:00.00 | 5:26.10 | 0 | 24459
2 | 5:26.10 | 8:09.00 | 24460 | 61134
3 | 13:35.10 | 5:51.47 | 61135 | 87506
4 | 19:26.57 | 4:22.58 | 87507 | 107214
5 | 23:49.40 | 5:34.00 | 107215 | 132264
6 | 29:23.40 | 4:56.70 | 132265 | 154534
7 | 34:20.35 | 7:50.50 | 154535 | 189834
8 | 42:11.10 | 4:52.18 | 189835 | 211752
9 | 47:03.28 | 5:00.32 | 211753 | 234284
10 | 52:03.60 | 3:30.20 | 234285 | 250054
Характеристики диапазона извлечения и сообщения об ошибках
Выбранный диапазон
Имя файла K:\Torrents (for Upload)\Rofo\Rofo 1988 - The CD-Album\Rofo - The CD-Album.wav
Пиковый уровень 100.0 %
Качество диапазона 100.0 %
CRC копии E53C865D
Копирование... OK
Ошибок не произошло
AccurateRip: сводка
Трек 1 нет в базе данных
Трек 2 нет в базе данных
Трек 3 нет в базе данных
Трек 4 нет в базе данных
Трек 5 нет в базе данных
Трек 6 нет в базе данных
Трек 7 нет в базе данных
Трек 8 нет в базе данных
Трек 9 нет в базе данных
Трек 10 нет в базе данных
Ни одного трека нет в базе AccurateRip
Конец отчёта
[Торрент-статистика]
[Профиль]  [ЛС] 
Показать сообщения:    
Ответить на тему

Текущее время: Сегодня 00:54

Часовой пояс: GMT + 4



Вы не можете начинать темы
Вы не можете отвечать на сообщения
Вы не можете редактировать свои сообщения
Вы не можете удалять свои сообщения
Вы не можете голосовать в опросах
Вы не можете прикреплять файлы к сообщениям
Вы не можете скачивать файлы