Spagna - Dance Collection - 1997, (Italo-Disco), APE (image+.cue), lossless

Ответить на тему
 
Автор
Сообщение

Admiral ®

Пол:

Стаж: 7 лет 2 месяца

Сообщений: 606

Репутация: 146 [+] [-]

Пост 25-Июн-2014 16:49

[Цитировать] 

--Spagna - Dance Collection-- Жанр: Italo-Disco
Год выпуска диска: 1997
Производитель диска: Italy - Sony Music
Аудио кодек: APE
Тип рипа: image+.cue
Битрейт аудио: lossless
Продолжительность: 01:11:10
Трэклист:
01. Call Me 4:08
02. Easy Lady 4:52
03. I Always Dream About You 4:36
04. Lady Madonna (D.Monti Euromix 133 B.P.M.) 4:57
05. Why Me 4:13
06. Love At First Sight 4:51
07. Don't Go Away Tonight 3:49
08. I Wanna Be Your Wife 4:02
09. This Generation 3:54
10. Every Girl And Boy 3:43
11. Dance Dance Dance 4:18
12. Why Me (Radio Edit) 3:51
13. Love At First Sight (Groove Radio Version) 4:26
14. I Wanna Be Your Wife (Extended Version) 5:34
15. Lady Madonna (Radio Edit 128 B.P.M.) 4:11
16. I Always Dream About You (L & D Dub Mix) 5:46

Back

Отчёт EAC

Exact Audio Copy V0.99 prebeta 5 from 4. May 2009
Отчёт EAC об извлечении, выполненном 21. сентября 2009, 22:31
Spagna / Dance Collection
Дисковод: Optiarc DVD RW AD-5200A Adapter: 0 ID: 0
Режим чтения : Достоверность
Использование точного потока : Да
Отключение кэша аудио : Да
Использование указателей C2 : Нет
Коррекция смещения при чтении : 48
Способность читать области Lead-in и Lead-out : Нет
Заполнение пропущенных сэмплов тишиной : Да
Удаление блоков с тишиной в начале и конце : Нет
При вычислениях CRC использовались нулевые сэмплы : Да
Интерфейс : Установленный внешний ASPI-интерфейс
Выходной формат : Внутренние WAV-операции
Формат сэмплов : 44.100 Гц; 16 бит; стерео
TOC извлечённого CD
Трек | Старт | Длительность | Начальный сектор | Конечный сектор
---------------------------------------------------------------------
1 | 0:00.00 | 4:07.45 | 0 | 18569
2 | 4:07.45 | 4:52.35 | 18570 | 40504
3 | 9:00.05 | 4:36.07 | 40505 | 61211
4 | 13:36.12 | 4:56.63 | 61212 | 83474
5 | 18:33.00 | 4:12.52 | 83475 | 102426
6 | 22:45.52 | 4:50.60 | 102427 | 124236
7 | 27:36.37 | 3:49.33 | 124237 | 141444
8 | 31:25.70 | 4:01.42 | 141445 | 159561
9 | 35:27.37 | 3:54.05 | 159562 | 177116
10 | 39:21.42 | 3:42.48 | 177117 | 193814
11 | 43:04.15 | 4:18.00 | 193815 | 213164
12 | 47:22.15 | 3:50.65 | 213165 | 230479
13 | 51:13.05 | 4:26.00 | 230480 | 250429
14 | 55:39.05 | 5:34.10 | 250430 | 275489
15 | 61:13.15 | 4:11.27 | 275490 | 294341
16 | 65:24.42 | 5:46.10 | 294342 | 320301
Характеристики диапазона извлечения и сообщения об ошибках
Выбранный диапазон
Имя файла E:\Spagna - Dance Collection\Spagna - Dance Collection.wav
Пиковый уровень 98.8 %
Качество диапазона 99.9 %
CRC теста 3335A79E
CRC копии 3335A79E
Копирование... OK
Ошибок не произошло
AccurateRip: сводка
Трек 1 нет в базе данных
Трек 2 нет в базе данных
Трек 3 нет в базе данных
Трек 4 нет в базе данных
Трек 5 нет в базе данных
Трек 6 нет в базе данных
Трек 7 нет в базе данных
Трек 8 нет в базе данных
Трек 9 нет в базе данных
Трек 10 нет в базе данных
Трек 11 нет в базе данных
Трек 12 нет в базе данных
Трек 13 нет в базе данных
Трек 14 нет в базе данных
Трек 15 нет в базе данных
Трек 16 нет в базе данных
Ни одного трека нет в базе AccurateRip
Конец отчёта
[Торрент-статистика]
[Профиль]  [ЛС] 
Показать сообщения:    
Ответить на тему

Текущее время: Сегодня 03:13

Часовой пояс: GMT + 4



Вы не можете начинать темы
Вы не можете отвечать на сообщения
Вы не можете редактировать свои сообщения
Вы не можете удалять свои сообщения
Вы не можете голосовать в опросах
Вы не можете прикреплять файлы к сообщениям
Вы не можете скачивать файлы