Spagna - No Way Out - 1991, (Pop/Disco), FLAC (image+.cue), lossless

Ответить на тему
 
Автор
Сообщение

Admiral ®

Пол:

Стаж: 7 лет 2 месяца

Сообщений: 606

Репутация: 146 [+] [-]

Пост 25-Июн-2014 16:04

[Цитировать] 

--Spagna - No Way Out-- Жанр: Pop/Disco
Год выпуска диска: 1991
Производитель диска: Made in Holland Sony Music Entertainment 468621 2
Аудио кодек: FLAC
Тип рипа: image+.cue
Битрейт аудио: lossless
Продолжительность: 01:44:34
Трэклист:
01. Only Words [0:04:39.00]
02. You Break Into My Heart [0:04:05.76]
03. No Way Out [0:04:33.86]
04. Love At First Sight [0:04:50.50]
05. Me And My Love [0:04:34.53]
06. I Don't Wanna Fall In Love [0:03:53.76]
07. There's A Love [0:04:19.50]
08. Number One [0:04:52.80]
09. I Miss You [0:04:23.46]
10. I Only Dance With You [0:04:21.13]

disc&back

Отчёт EAC

Exact Audio Copy V0.99 prebeta 5 from 4. May 2009
EAC extraction logfile from 13. February 2010, 21:40
Spagna / No Way Out
Used drive : PLEXTOR DVDR PX-716A Adapter: 0 ID: 0
Read mode : Secure
Utilize accurate stream : Yes
Defeat audio cache : Yes
Make use of C2 pointers : No
Read offset correction : 30
Overread into Lead-In and Lead-Out : Yes
Fill up missing offset samples with silence : Yes
Delete leading and trailing silent blocks : No
Null samples used in CRC calculations : Yes
Used interface : Native Win32 interface for Win NT & 2000
Used output format : User Defined Encoder
Selected bitrate : 1024 kBit/s
Quality : High
Add ID3 tag : No
Command line compressor : C:\Program Files\FLAC\flac.exe
Additional command line options : -8 -V -T "ARTIST=%a" -T "TITLE=%t" -T "ALBUM=%g" -T "DATE=%y" -T "TRACKNUMBER=%n" -T "GENRE=%m" -T "COMMENT=EAC FLAC -8" %s
TOC of the extracted CD
Track | Start | Length | Start sector | End sector
---------------------------------------------------------
1 | 0:00.00 | 4:39.00 | 0 | 20924
2 | 4:39.00 | 4:05.57 | 20925 | 39356
3 | 8:44.57 | 4:33.65 | 39357 | 59896
4 | 13:18.47 | 4:50.38 | 59897 | 81684
5 | 18:09.10 | 4:34.40 | 81685 | 102274
6 | 22:43.50 | 3:53.57 | 102275 | 119806
7 | 26:37.32 | 4:19.38 | 119807 | 139269
8 | 30:56.70 | 4:52.60 | 139270 | 161229
9 | 35:49.55 | 4:23.35 | 161230 | 180989
10 | 40:13.15 | 4:21.10 | 180990 | 200574
Range status and errors
Selected range
Filename E:\mtorrent_flac\Spagna - No Way Out\Spagna - No Way Out.wav
Peak level 100.0 %
Range quality 100.0 %
Test CRC CCFD8E9E
Copy CRC CCFD8E9E
Copy OK
No errors occurred
AccurateRip summary
Track 1 accurately ripped (confidence 3) [617E3D7E]
Track 2 accurately ripped (confidence 3) [ED2ECC9E]
Track 3 accurately ripped (confidence 3) [05A8A403]
Track 4 accurately ripped (confidence 3) [D3E2C337]
Track 5 accurately ripped (confidence 3) [B2435EF5]
Track 6 accurately ripped (confidence 3) [B22BF08C]
Track 7 accurately ripped (confidence 3) [647FB66A]
Track 8 accurately ripped (confidence 3) [5155EDBE]
Track 9 accurately ripped (confidence 3) [A8805384]
Track 10 accurately ripped (confidence 3) [8392CB56]
All tracks accurately ripped
End of status report
[Торрент-статистика]
[Профиль]  [ЛС] 
Показать сообщения:    
Ответить на тему

Текущее время: Сегодня 05:45

Часовой пояс: GMT + 4



Вы не можете начинать темы
Вы не можете отвечать на сообщения
Вы не можете редактировать свои сообщения
Вы не можете удалять свои сообщения
Вы не можете голосовать в опросах
Вы не можете прикреплять файлы к сообщениям
Вы не можете скачивать файлы